Search

Rampage 2018 x264 720p Esub HD Dual Audio English Hindi GOPISAHI

Hindi Audio Line


Format                         : Matroska
Format version                 : Version 4 / Version 2
File size                      : 590 MiB
Duration                       : 1 h 47 min
Overall bit rate               : 769 kb/s
Movie name                     : Rampage 2018 GOPISAHI

Video
Format                         : AVC
Codec ID                       : V_MPEG4/ISO/AVC
Duration                       : 1 h 47 min
Bit rate                       : 600 kb/s
Width                          : 1 280 pixels
Height                         : 532 pixels
Display aspect ratio           : 2.40:1
Frame rate mode                : Constant
Frame rate                     : 23.976 (24000/1001) FPS
Color space                    : YUV
Chroma subsampling             : 4:2:0
Bit depth                      : 8 bits
Scan type                      : Progressive
Bits/(Pixel*Frame)             : 0.037
Stream size                    : 455 MiB (77%)
Title                          : GOPISAHI
Writing library                : x264 core 155 r2893 b00bcaf

Audio #1
Format                         : AAC
Duration                       : 1 h 47 min
Bit rate                       : 85.0 kb/s
Channel(s)                     : 6 channels
Channel positions              : Front: L C R, Side: L R, LFE
Sampling rate                  : 44.1 kHz
Frame rate                     : 43.066 FPS (1024 SPF)
Compression mode               : Lossy
Stream size                    : 65.2 MiB (11%)
Title                          : GOPISAHI
Language                       : English

Audio #2
Format                         : AAC
Duration                       : 1 h 47 min
Bit rate                       : 88.2 kb/s
Channel(s)                     : 6 channels
Channel positions              : Front: L C R, Side: L R, LFE
Sampling rate                  : 44.1 kHz
Frame rate                     : 43.066 FPS (1024 SPF)
Compression mode               : Lossy
Stream size                    : 67.6 MiB (11%)
Title                          : GOPISAHI
Language                       : Hindi

Text
Language                       : English

Menu
00:00:00.000                   : en:1
00:12:58.027                   : en:2
00:19:56.028                   : en:3
00:29:53.041                   : en:4
00:40:35.058                   : en:5
00:49:10.072                   : en:6
01:02:38.004                   : en:7
01:10:37.066                   : en:8
01:20:10.055                   : en:9
01:29:23.024                   : en:10
01:39:42.059                   : en:11





 Rampage
(2018) on IMDb

Post a Comment

0 Comments