Richie 2017 480p UNCUT HDRip x264 ESub Dual Audio Hindi Tamil GOPISAHI - GOPISAHI

Friday, 22 June 2018

Richie 2017 480p UNCUT HDRip x264 ESub Dual Audio Hindi Tamil GOPISAHI


Format                         : Matroska
Format version                 : Version 4 / Version 2
File size                      : 275 MiB
Duration                       : 1 h 44 min
Overall bit rate               : 366 kb/s
Movie name                     : Richie 2017 GOPISAHI

Video
Format                         : AVC
Codec ID                       : V_MPEG4/ISO/AVC
Duration                       : 1 h 44 min
Bit rate                       : 250 kb/s
Width                          : 700 pixels
Height                         : 298 pixels
Display aspect ratio           : 2.35:1
Original display aspect ratio  : 2.35:1
Frame rate mode                : Constant
Frame rate                     : 29.970 (30000/1001) FPS
Color space                    : YUV
Chroma subsampling             : 4:2:0
Bit depth                      : 8 bits
Scan type                      : Progressive
Bits/(Pixel*Frame)             : 0.040
Stream size                    : 188 MiB (68%)
Title                          : GOPISAHI
Writing library                : x264 core 155 r2893 b00bcaf

Audio #1
Format                         : AAC
Duration                       : 1 h 44 min
Bit rate                       : 56.5 kb/s
Channel(s)                     : 2 channels
Channel positions              : Front: L R
Sampling rate                  : 44.1 kHz
Frame rate                     : 43.066 FPS (1024 SPF)
Compression mode               : Lossy
Stream size                    : 42.4 MiB (15%)
Title                          : GOPISAHI
Language                       : Tamil

Audio #2
Format/Info                    : Advanced Audio Codec
Duration                       : 1 h 44 min
Bit rate                       : 56.5 kb/s
Channel(s)                     : 2 channels
Channel positions              : Front: L R
Sampling rate                  : 44.1 kHz
Frame rate                     : 43.066 FPS (1024 SPF)
Compression mode               : Lossy
Stream size                    : 42.4 MiB (15%)
Title                          : GOPISAHI
Language                       : Hindi

Text
Language                       : English



https://linkshub.me/view/KxBtq4QfzW

 Richie
(2017) on IMDb

No comments:

Post a Comment