Search

Sabotage 2014 720p Esub BluRay Dual Audio English Hindi 5.1 GOPI SAHI


Video
Format                         : AVC
Codec ID                       : V_MPEG4/ISO/AVC
Duration                       : 1 h 49 min
Bit rate                       : 1 000 kb/s
Width                          : 1 280 pixels
Height                         : 528 pixels
Display aspect ratio           : 2.40:1
Frame rate mode                : Constant
Frame rate                     : 23.976 (24000/1001) FPS
Stream size                    : 780 MiB (85%)
Writing library                : x264 core 142 r2431 ac76440
Audio #1
Format                         : AAC
Duration                       : 1 h 49 min
Bit rate                       : 85.8 kb/s
Channel(s)                     : 6 channels
Channel positions              : Front: L C R, Side: L R, LFE
Sampling rate                  : 44.1 kHz
Frame rate                     : 43.066 FPS (1024 spf)
Compression mode               : Lossy
Stream size                    : 67.3 MiB (7%)
Language                       : English
Audio #2
Format                         : AAC
Duration                       : 1 h 49 min
Bit rate                       : 87.8 kb/s
Channel(s)                     : 6 channels
Channel positions              : Front: L C R, Side: L R, LFE
Sampling rate                  : 44.1 kHz
Frame rate                     : 43.066 FPS (1024 spf)
Stream size                    : 68.9 MiB (8%)
Language                       : Hindi
Text
Duration                       : 1 h 39 min
Stream size                    : 43.2 KiB (0%)
Language                       : English
http://i.imgur.com/zAnxNi1.jpg
http://i.imgur.com/nSvqRZO.jpg
http://i.imgur.com/QDxX7oe.jpg
 Sabotage
(2014) on IMDb

Post a Comment

0 Comments