Search

Sat Shri Akaal England 2017 x264 720p HD 5.1 Esub Punjabi GOPISAHI


Format                         : Matroska
Format version                 : Version 4 / Version 2
File size                      : 633 MiB
Duration                       : 2 h 7 min
Overall bit rate               : 692 kb/s
Movie name                     : Sat Shri Akaal England 2017 GOPISAHI

Video
Format                         : AVC
Codec ID                       : V_MPEG4/ISO/AVC
Duration                       : 2 h 7 min
Bit rate                       : 600 kb/s
Width                          : 1 280 pixels
Height                         : 536 pixels
Display aspect ratio           : 2.40:1
Frame rate mode                : Constant
Frame rate                     : 24.000 FPS
Color space                    : YUV
Chroma subsampling             : 4:2:0
Bit depth                      : 8 bits
Scan type                      : Progressive
Bits/(Pixel*Frame)             : 0.036
Stream size                    : 549 MiB (87%)
Title                          : GOPISAHI
Writing library                : x264 core 155 r2893 b00bcaf

Audio
Format                         : AAC
Duration                       : 2 h 7 min
Bit rate                       : 89.6 kb/s
Channel(s)                     : 6 channels
Channel positions              : Front: L C R, Side: L R, LFE
Sampling rate                  : 44.1 kHz
Frame rate                     : 43.066 FPS (1024 SPF)
Compression mode               : Lossy
Stream size                    : 81.9 MiB (13%)
Title                          : GOPISAHI
Language                       : Hindi

Text
Language                       : English





 Sat Shri Akaal England
(2017) on IMDb

Post a Comment

0 Comments