Shubh Mangal Saavdhan 2017 720p Esub HDRip Hindi GOPISAHI - GOPISAHI

Monday, 25 June 2018

Shubh Mangal Saavdhan 2017 720p Esub HDRip Hindi GOPISAHI

 General
Unique ID                      : 205187966443692270946383940907069954813 (0x9A5DC3CF300B75D0A741F0920CED5AFD)
Complete name                  : G:\film\hindi\Shubh Mangal Saavdhan 2017 720p Esub HDRip DVD Hindi GOPISAHI.mkv
Format                         : Matroska
Format version                 : Version 4 / Version 2
File size                      : 514 MiB
Duration                       : 1 h 44 min
Overall bit rate               : 690 kb/s
Movie name                     : Shubh Mangal Saavdhan 2017 GOPISAHI
Encoded date                   : UTC 2017-12-13 15:07:34
Writing application            : mkvmerge v13.0.0 ('The Juggler') 64bit
Writing library                : libebml v1.3.4 + libmatroska v1.4.5

Video
ID                             : 1
Format                         : AVC
Format/Info                    : Advanced Video Codec
Format profile                 : [email protected]
Format settings                : CABAC / 16 Ref Frames
Format settings, CABAC         : Yes
Format settings, RefFrames     : 16 frames
Codec ID                       : V_MPEG4/ISO/AVC
Duration                       : 1 h 44 min
Bit rate                       : 600 kb/s
Width                          : 1 280 pixels
Height                         : 536 pixels
Display aspect ratio           : 2.40:1
Frame rate mode                : Constant
Frame rate                     : 24.000 FPS
Color space                    : YUV
Chroma subsampling             : 4:2:0
Bit depth                      : 8 bits
Scan type                      : Progressive
Bits/(Pixel*Frame)             : 0.036
Stream size                    : 446 MiB (87%)
Writing library                : x264 core 152 r2851 ba24899
Language                       : Hindi

Audio
Format                         : AAC
Duration                       : 1 h 44 min
Bit rate                       : 88.3 kb/s
Channel(s)                     : 6 channels
Channel positions              : Front: L C R, Side: L R, LFE
Sampling rate                  : 44.1 kHz
Frame rate                     : 43.066 FPS (1024 SPF)
Compression mode               : Lossy
Stream size                    : 65.8 MiB (13%)
Language                       : Hindi

Text
Language                       : English




 Shubh Mangal Saavdhan
(2017) on IMDb

No comments:

Post a Comment