Stories by Rabindranath Tagore Season1 EP 01 TO EP13 Complete 480p HD x264 Hindi GOPISAHI 1GB - GOPISAHI

Tuesday, 26 June 2018

Stories by Rabindranath Tagore Season1 EP 01 TO EP13 Complete 480p HD x264 Hindi GOPISAHI 1GB


Format                         : MPEG-4
Format profile                 : Base Media / Version 2
Codec ID                       : mp42 (isom/iso2/avc1/mp41)
File size                      : 75.3 MiB
Duration                       : 44 min 5 s
Overall bit rate               : 239 kb/s
Movie name                     : Stories by Rabindranath Tagore Episode 1 720p Netflix WEB-DL x264

Video
ID                             : 1
Format                         : AVC
Format/Info                    : Advanced Video Codec
Format profile                 : [email protected]
Format settings                : CABAC / 8 Ref Frames
Format settings, CABAC         : Yes
Format settings, ReFrames      : 8 frames
Codec ID                       : avc1
Codec ID/Info                  : Advanced Video Coding
Duration                       : 44 min 4 s
Bit rate                       : 200 kb/s
Width                          : 720 pixels
Height                         : 406 pixels
Display aspect ratio           : 16:9
Frame rate mode                : Constant
Frame rate                     : 25.000 FPS
Color space                    : YUV
Chroma subsampling             : 4:2:0
Bit depth                      : 8 bits
Scan type                      : Progressive
Bits/(Pixel*Frame)             : 0.027
Stream size                    : 63.0 MiB (84%)
Writing library                : x264 core 148 r2708 86b7198

Audio
ID                             : 2
Format                         : MPEG Audio
Format version                 : Version 1
Format profile                 : Layer 3
Format settings                : Joint stereo / MS Stereo
Codec ID                       : mp4a-6B
Duration                       : 44 min 5 s
Bit rate mode                  : Constant
Bit rate                       : 32.0 kb/s
Channel(s)                     : 2 channels
Sampling rate                  : 44.1 kHz
Compression mode               : Lossy
Stream size                    : 10.1 MiB (13%)
Title                          : Stereo / Stereo
Default                        : Yes
Alternate group                : 1
Encoded date                   : UTC 2018-06-25 10:38:46
Tagged date                    : UTC 2018-06-25 10:38:46




ONE BY ONE EP IN RARA DWONLOAD RAR EXTARCT APP FOR MOBILE

https://www.linkshub.me/view/nz7BEn0bwr


 Stories by Rabindranath Tagore
(2015) on IMDb

1 comment:

  1. Many many thanks bro for this 13 episodes please upload last 13 episodes as soon as possible.

    ReplyDelete