Ted 2 2015 x264 720p Esub BluRay 5.1 Dual Audio English Hindi GOPISAHI - GOPISAHI

Monday, 18 June 2018

Ted 2 2015 x264 720p Esub BluRay 5.1 Dual Audio English Hindi GOPISAHI


Format                         : Matroska
Format version                 : Version 4 / Version 2
File size                      : 767 MiB
Duration                       : 1 h 55 min
Overall bit rate               : 928 kb/s
Movie name                     : Ted 2 2015 GOPISAHI

Video
Format                         : AVC
Codec ID                       : V_MPEG4/ISO/AVC
Duration                       : 1 h 55 min
Bit rate                       : 730 kb/s
Width                          : 1 280 pixels
Height                         : 534 pixels
Display aspect ratio           : 2.40:1
Original display aspect ratio  : 2.40:1
Frame rate mode                : Constant
Frame rate                     : 23.976 (24000/1001) FPS
Color space                    : YUV
Chroma subsampling             : 4:2:0
Bit depth                      : 8 bits
Scan type                      : Progressive
Bits/(Pixel*Frame)             : 0.045
Stream size                    : 603 MiB (79%)
Title                          : GOPISAHI
Writing library                : x264 core 142 r2479 dd79a61

Audio #1
Format                         : AAC
Duration                       : 1 h 55 min
Bit rate                       : 128 kb/s
Channel(s)                     : 2 channels
Channel positions              : Front: L R
Sampling rate                  : 48.0 kHz
Frame rate                     : 46.875 FPS (1024 SPF)
Compression mode               : Lossy
Stream size                    : 106 MiB (14%)
Title                          : GOPISAHI
Language                       : English

Audio #2
Format                         : Opus
Codec ID                       : A_OPUS
Duration                       : 1 h 54 min
Bit rate                       : 67.3 kb/s
Channel(s)                     : 6 channels
Channel positions              : Front: L C R, Rear: L R, LFE
Sampling rate                  : 44.1 kHz
Frame rate                     : 50.000 FPS (882 SPF)
Compression mode               : Lossy
Stream size                    : 55.3 MiB (7%)
Title                          : GOPISAHI
Language                       : Hindi

Text
Language                       : English




TORRENT

MAGNET

https://linkshub.me/view/D7hz8EfkaS

 Ted 2
(2015) on IMDb

No comments:

Post a Comment