Terminator Genisys 2015 x264 720p Esub BluRay Dual Audio English Hindi GOPISAHI - GOPISAHI

Monday, 11 June 2018

Terminator Genisys 2015 x264 720p Esub BluRay Dual Audio English Hindi GOPISAHI



Format                         : Matroska
Format version                 : Version 4 / Version 2
File size                      : 978 MiB
Duration                       : 2 h 5 min
Overall bit rate               : 1 088 kb/s
Movie name                     : Terminator Genisys 2015 GOPISAHI

Video
Format                         : AVC
Codec ID                       : V_MPEG4/ISO/AVC
Duration                       : 2 h 5 min
Bit rate                       : 874 kb/s
Width                          : 1 280 pixels
Height                         : 536 pixels
Display aspect ratio           : 2.40:1
Frame rate mode                : Constant
Frame rate                     : 23.976 (24000/1001) FPS
Original frame rate            : 23.976 (23976/1000) FPS
Color space                    : YUV
Chroma subsampling             : 4:2:0
Bit depth                      : 8 bits
Scan type                      : Progressive
Bits/(Pixel*Frame)             : 0.053
Stream size                    : 786 MiB (80%)
Title                          : GOPISAHI
Writing library                : x264 core 123 r2189 35cf912

Audio #1
Format                         : AAC
Duration                       : 2 h 5 min
Bit rate                       : 85.4 kb/s
Channel(s)                     : 6 channels
Channel positions              : Front: L C R, Side: L R, LFE
Sampling rate                  : 44.1 kHz
Frame rate                     : 43.066 FPS (1024 SPF)
Compression mode               : Lossy
Stream size                    : 76.8 MiB (8%)
Title                          : GOPISAHI
Language                       : English

Audio #2
Format                         : AAC
Duration                       : 2 h 5 min
Bit rate                       : 125 kb/s
Channel(s)                     : 2 channels
Channel positions              : Front: L R
Sampling rate                  : 44.1 kHz
Frame rate                     : 43.066 FPS (1024 SPF)
Compression mode               : Lossy
Stream size                    : 113 MiB (12%)
Title                          : GOPISAHI
Language                       : Hindi

Text
Language                       : English







 Terminator Genisys
(2015) on IMDb

No comments:

Post a Comment