Search

The Hero Of Color City 2014 x264 720p Esub BluRay Dual Audio English Hindi GOPISAHI


Format                         : Matroska
Format version                 : Version 4 / Version 2
File size                      : 547 MiB
Duration                       : 1 h 17 min
Overall bit rate               : 992 kb/s
Movie name                     : The Hero of Color City 2014 GOPISAHI

Video
Format                         : AVC
Codec ID                       : V_MPEG4/ISO/AVC
Duration                       : 1 h 17 min
Bit rate                       : 799 kb/s
Width                          : 1 280 pixels
Height                         : 720 pixels
Display aspect ratio           : 16:9
Frame rate mode                : Constant
Frame rate                     : 23.976 (24000/1001) FPS
Color space                    : YUV
Chroma subsampling             : 4:2:0
Bit depth                      : 8 bits
Scan type                      : Progressive
Bits/(Pixel*Frame)             : 0.036
Stream size                    : 441 MiB (81%)
Title                          : GOPISAHI
Writing library                : x264 core 148 r2708 86b7198

Audio #1
Format                         : AAC
Duration                       : 1 h 17 min
Bit rate                       : 96.0 kb/s
Channel(s)                     : 2 channels
Channel positions              : Front: L R
Sampling rate                  : 48.0 kHz
Frame rate                     : 46.875 FPS (1024 SPF)
Compression mode               : Lossy
Delay relative to video        : -12 ms
Stream size                    : 52.7 MiB (10%)
Title                          : GOPISAHI
Language                       : Hindi

Audio #2
Format                         : AAC
Duration                       : 1 h 17 min
Bit rate                       : 93.6 kb/s
Channel(s)                     : 2 channels
Channel positions              : Front: L R
Sampling rate                  : 48.0 kHz
Frame rate                     : 46.875 FPS (1024 SPF)
Compression mode               : Lossy
Delay relative to video        : -12 ms
Stream size                    : 51.6 MiB (9%)
Title                          : GOPISAHI
Language                       : English

Text
Language                       : English



TORRENT

MAGNET

https://www.linkshub.me/view/pZY9ncyEPL

 The Hero of Color City
(2014) on IMDb

Post a Comment

0 Comments