Search

The Host 2013 720p Esub BluRay Dual Audio English Hindi GOPISAHI


Format                         : Matroska
Format version                 : Version 4 / Version 2
File size                      : 693 MiB
Duration                       : 2 h 5 min
Overall bit rate               : 770 kb/s
Movie name                     : The Host 2013 GOPISAHI

Video
Format                         : AVC
Codec ID                       : V_MPEG4/ISO/AVC
Duration                       : 2 h 5 min
Bit rate                       : 600 kb/s
Width                          : 1 262 pixels
Height                         : 536 pixels
Display aspect ratio           : 2.35:1
Frame rate mode                : Constant
Frame rate                     : 23.976 (24000/1001) FPS
Stream size                    : 539 MiB (78%)
Title                          : GOPISAHI
Writing library                : x264 core 155 r2893 b00bcaf

Audio #1
Format                         : AAC
Duration                       : 2 h 5 min
Bit rate                       : 86.8 kb/s
Channel(s)                     : 6 channels
Channel positions              : Front: L C R, Side: L R, LFE
Sampling rate                  : 44.1 kHz
Frame rate                     : 43.066 FPS (1024 SPF)
Compression mode               : Lossy
Stream size                    : 78.1 MiB (11%)
Language                       : Hindi

Audio #2
Format                         : AAC
Duration                       : 2 h 5 min
Bit rate                       : 81.3 kb/s
Channel(s)                     : 6 channels
Channel positions              : Front: L C R, Side: L R, LFE
Sampling rate                  : 44.1 kHz
Frame rate                     : 43.066 FPS (1024 SPF)
Compression mode               : Lossy
Stream size                    : 73.1 MiB (11%)I
Language                       : English

Text
ID                             : 4
Language                       : English

Post a Comment

0 Comments