Search

The Polar Express 2004 720p Esub BlyRay Dual Audio English Hindi GOPISAHI

Format                         : Matroska
Format version                 : Version 4 / Version 2
File size                      : 559 MiB
Duration                       : 1 h 39 min
Overall bit rate               : 782 kb/s
Movie name                     : The Polar Express 2004 GOPISAHI

Video
Format                         : AVC
Codec ID                       : V_MPEG4/ISO/AVC
Duration                       : 1 h 39 min
Bit rate                       : 600 kb/s
Width                          : 1 280 pixels
Height                         : 544 pixels
Display aspect ratio           : 2.35:1
Frame rate mode                : Constant
Frame rate                     : 23.976 (24000/1001) FPS
Color space                    : YUV
Stream size                    : 429 MiB (77%)
Writing library                : x264

Audio #1
Format                         : AAC
Duration                       : 1 h 39 min
Bit rate                       : 89.4 kb/s
Channel(s)                     : 6 channels
Channel positions              : Front: L C R, Side: L R, LFE
Sampling rate                  : 44.1 kHz
Frame rate                     : 43.066 FPS (1024 SPF)
Compression mode               : Lossy
Stream size                    : 63.9 MiB (11%)
Language                       : English

Audio #2
Format                         : AAC
Duration                       : 1 h 37 min
Bit rate                       : 92.6 kb/s
Channel(s)                     : 6 channels
Channel positions              : Front: L C R, Side: L R, LFE
Sampling rate                  : 44.1 kHz
Frame rate                     : 43.066 FPS (1024 SPF)
Compression mode               : Lossy
Stream size                    : 64.7 MiB (12%)
Language                       : Hindi

Text%)
Title                          : GOPISAHI
Language                       : English



 The Polar Express
(2004) on IMDb

Post a Comment

0 Comments