The Returned 2013 720p Esub BluRay Dual Audio English Hindi GOPISAHI - GOPISAHI

Sunday, 10 June 2018

The Returned 2013 720p Esub BluRay Dual Audio English Hindi GOPISAHI


Format                         : Matroska
Format version                 : Version 4 / Version 2
File size                      : 541 MiB
Duration                       : 1 h 37 min
Overall bit rate               : 772 kb/s
Movie name                     : The Returned 2013 GOPISAHI

Video
ID                             : 1
Format                         : AVC
Format settings, ReFrames      : 16 frames
Codec ID                       : V_MPEG4/ISO/AVC
Duration                       : 1 h 37 min
Bit rate                       : 600 kb/s
Width                          : 1 280 pixels
Height                         : 544 pixels
Display aspect ratio           : 2.35:1
Frame rate mode                : Constant
Frame rate                     : 24.000 FPS
Stream size                    : 420 MiB (78%)
Writing library                : x264 core 155 r2893 b00bcaf

Audio #1
Format                         : AAC
Duration                       : 1 h 37 min
Bit rate                       : 81.7 kb/s
Channel(s)                     : 6 channels
Channel positions              : Front: L C R, Side: L R, LFE
Sampling rate                  : 44.1 kHz
Frame rate                     : 43.066 FPS (1024 SPF)
Compression mode               : Lossy
Stream size                    : 57.2 MiB (11%)
Language                       : English

Audio #2
Format                         : AAC
Duration                       : 1 h 37 min
Bit rate                       : 88.3 kb/s
Channel(s)                     : 6 channels
Channel positions              : Front: L C R, Side: L R, LFE
Sampling rate                  : 44.1 kHz
Frame rate                     : 43.066 FPS (1024 SPF)
Compression mode               : Lossy
Stream size                    : 61.8 MiB (11%)
Language                       : Hindi

Text
Language                       : English


No comments:

Post a Comment