The Sorcerer and the White Snake 2011 1080p Esub BluRay Multi Audio English Hindi Chinese GOPISAHI - GOPISAHI

Thursday, 14 June 2018

The Sorcerer and the White Snake 2011 1080p Esub BluRay Multi Audio English Hindi Chinese GOPISAHI

Format                         : Matroska
Format version                 : Version 4 / Version 2
File size                      : 908 MiB
Duration                       : 1 h 42 min
Overall bit rate               : 1 243 kb/s
Movie name                     : The Sorcerer and the White Snake 2011 GOPISAHI

Video
Format                         : AVC
Codec ID                       : V_MPEG4/ISO/AVC
Duration                       : 1 h 42 min
Bit rate                       : 1 000 kb/s
Width                          : 1 920 pixels
Height                         : 804 pixels
Display aspect ratio           : 2.40:1
Frame rate mode                : Constant
Frame rate                     : 24.000 FPS
Stream size                    : 730 MiB (80%)
Writing library                : x264

Audio #1
Format                         : AAC
Duration                       : 1 h 42 min
Bit rate                       : 81.2 kb/s
Channel(s)                     : 6 channels
Channel positions              : Front: L C R, Side: L R, LFE
Sampling rate                  : 44.1 kHz
Frame rate                     : 43.066 FPS (1024 SPF)
Stream size                    : 59.3 MiB (7%)
Language                       : Hindi

Audio #2
Format                         : AAC
Duration                       : 1 h 42 min
Bit rate                       : 70.5 kb/s
Channel(s)                     : 6 channels
Channel positions              : Front: L C R, Side: L R, LFE
Sampling rate                  : 44.1 kHz
Frame rate                     : 43.066 FPS (1024 SPF)
Stream size                    : 51.5 MiB (6%)
Language                       : English

Audio #3
Format                         : AAC
Duration                       : 1 h 42 min
Bit rate                       : 88.7 kb/s
Channel(s)                     : 6 channels
Channel positions              : Front: L C R, Side: L R, LFE
Sampling rate                  : 44.1 kHz
Frame rate                     : 43.066 FPS (1024 SPF)
Compression mode               : Lossy
Stream size                    : 64.8 MiB (7%)
Language                       : Chinese

Text                             ENGLISH




 The Sorcerer and the White Snake
(2011) on IMDb

No comments:

Post a Comment