Search

The Twilight Saga Breaking Dawn Part 1 2011 720p Esub BluRay Dual Audio English Hindi GOPISAHI

General
Format                         : Matroska
Format version                 : Version 4 / Version 2
File size                      : 643 MiB
Duration                       : 1 h 57 min
Overall bit rate               : 768 kb/s
Movie name                     : The Twilight Saga Breaking Dawn Part 1 2011 GOPISAHI

Video
Format                         : AVC
Codec ID                       : V_MPEG4/ISO/AVC
Duration                       : 1 h 57 min
Bit rate                       : 600 kb/s
Width                          : 1 280 pixels
Height                         : 532 pixels
Display aspect ratio           : 2.40:1
Frame rate mode                : Constant
Frame rate                     : 23.976 (24000/1001) FPS
Stream size                    : 502 MiB (78%)
Title                          : GOPISAHI
Writing library                : x264

Audio #1
Format                         : AAC
Duration                       : 1 h 57 min
Bit rate                       : 86.6 kb/s
Channel(s)                     : 6 channels
Channel positions              : Front: L C R, Side: L R, LFE
Sampling rate                  : 44.1 kHz
Frame rate                     : 43.066 FPS (1024 SPF)
Compression mode               : Lossy
Stream size                    : 72.5 MiB (11%)
Title                          : GOPISAHI
Language                       : English

Audio #2
Format                         : AAC
Duration                       : 1 h 57 min
Bit rate                       : 78.5 kb/s
Channel(s)                     : 6 channels
Channel positions              : Front: L C R, Side: L R, LFE
Sampling rate                  : 44.1 kHz
Frame rate                     : 43.066 FPS (1024 SPF)
Compression mode               : Lossy
Stream size                    : 65.8 MiB (10%)
Title                          : GOPISAHI
Language                       : Hindi

Text
Language                       : English





 The Twilight Saga: Breaking Dawn - Part 1
(2011) on IMDb

Post a Comment

0 Comments