Search

Theeran Adhigaaram Ondru 2017 720p Uncut Hdrip X264 Hindi Tamil Telugu GOPISAHI


Format                         : Matroska
Format version                 : Version 4 / Version 2
File size                      : 704 MiB
Duration                       : 2 h 36 min
Overall bit rate               : 631 kb/s
Movie name                     : Theeran Adhigaaram Ondru 2017 GOPISAHI

Video
Format                         : AVC
Codec ID                       : V_MPEG4/ISO/AVC
Duration                       : 2 h 36 min
Bit rate                       : 500 kb/s
Width                          : 1 280 pixels
Height                         : 544 pixels
Display aspect ratio           : 2.35:1
Frame rate mode                : Constant
Frame rate                     : 24.000 FPS
Color space                    : YUV
Chroma subsampling             : 4:2:0
Bit depth                      : 8 bits
Scan type                      : Progressive
Bits/(Pixel*Frame)             : 0.030
Stream size                    : 558 MiB (79%)
Title                          : GOPISAHI
Writing library                : x264 core 148 r2708 86b7198

Audio #1
ID                             : 2
Format                         : AAC
Format/Info                    : Advanced Audio Codec
Format profile                 : LC
Codec ID                       : A_AAC-2
Duration                       : 2 h 36 min
Bit rate                       : 64.1 kb/s
Channel(s)                     : 2 channels
Channel positions              : Front: L R
Sampling rate                  : 48.0 kHz
Frame rate                     : 46.875 FPS (1024 SPF)
Compression mode               : Lossy
Delay relative to video        : -21 ms
Stream size                    : 71.5 MiB (10%)
Title                          : GOPISAHI
Language                       : Hindi

Audio #2
ID                             : 3
Format                         : MPEG Audio
Format version                 : Version 1
Format profile                 : Layer 3
Format settings                : Joint stereo / MS Stereo
Codec ID                       : A_MPEG/L3
Codec ID/Hint                  : MP3
Duration                       : 2 h 36 min
Bit rate mode                  : Constant
Bit rate                       : 32.0 kb/s
Channel(s)                     : 2 channels
Sampling rate                  : 48.0 kHz
Frame rate                     : 41.667 FPS (1152 SPF)
Compression mode               : Lossy
Delay relative to video        : -21 ms
Stream size                    : 35.7 MiB (5%)
Title                          : GOPISAHI
Language                       : Telugu

Audio #3
ID                             : 4
Format                         : MPEG Audio
Format version                 : Version 1
Format profile                 : Layer 3
Format settings                : Joint stereo / MS Stereo
Codec ID                       : A_MPEG/L3
Codec ID/Hint                  : MP3
Duration                       : 2 h 36 min
Bit rate mode                  : Constant
Bit rate                       : 32.0 kb/s
Channel(s)                     : 2 channels
Sampling rate                  : 48.0 kHz
Frame rate                     : 41.667 FPS (1152 SPF)
Compression mode               : Lossy
Delay relative to video        : -21 ms
Stream size                    : 35.7 MiB (5%)
Title                          : GOPISAHI
Language                       : Tamil

Text
Language                       : English



 Theeran Adhigaaram Ondru
(2017) on IMDb

Post a Comment

0 Comments