Tower Heist 2011 720p Esub BluRay Dual Audio English Hindi GOPISAHI - GOPISAHI

Tuesday, 19 June 2018

Tower Heist 2011 720p Esub BluRay Dual Audio English Hindi GOPISAHI

Format                         : Matroska
Format version                 : Version 4 / Version 2
File size                      : 774 MiB
Duration                       : 1 h 44 min
Overall bit rate               : 1 035 kb/s
Movie name                     : Tower Heist 2011 GOPISAHI

Video
Format                         : AVC
Codec ID                       : V_MPEG4/ISO/AVC
Duration                       : 1 h 44 min
Bit rate                       : 871 kb/s
Width                          : 1 280 pixels
Height                         : 536 pixels
Display aspect ratio           : 2.40:1
Frame rate mode                : Constant
Frame rate                     : 23.976 (24000/1001) FPS
Stream size                    : 650 MiB (84%)
Writing library                : x264

Audio #
Format                         : AAC
Duration                       : 1 h 44 min
Bit rate                       : 80.6 kb/s
Channel(s)                     : 6 channels
Channel positions              : Front: L C R, Side: L R, LFE
Sampling rate                  : 44.1 kHz
Frame rate                     : 43.066 FPS (1024 SPF)
Stream size                    : 60.3 MiB (8%)
Language                       : English

Audio #2
Format                         : AAC
Duration                       : 1 h 38 min
Bit rate                       : 87.3 kb/s
Channel(s)                     : 6 channels
Channel positions              : Front: L C R, Side: L R, LFE
Sampling rate                  : 44.1 kHz
Frame rate                     : 43.066 FPS (1024 SPF)
Stream size                    : 61.6 MiB (8%)
Language                       : Hindi

Text
Language                       : English


 Tower Heist
(2011) on IMDb

No comments:

Post a Comment