Vikram Vedha 2018 x264 720p HD 5.1 Hindi GOPISAHI - GOPISAHI

Wednesday, 13 June 2018

Vikram Vedha 2018 x264 720p HD 5.1 Hindi GOPISAHI


Format                         : Matroska
Format version                 : Version 4 / Version 2
File size                      : 642 MiB
Duration                       : 2 h 10 min
Overall bit rate               : 689 kb/s
Movie name                     : Vikram Vedha 2018 GOPISAHI

Video
Format                         : AVC
Codec ID                       : V_MPEG4/ISO/AVC
Duration                       : 2 h 10 min
Bit rate                       : 600 kb/s
Width                          : 1 280 pixels
Height                         : 544 pixels
Display aspect ratio           : 2.35:1
Frame rate mode                : Constant
Frame rate                     : 25.000 FPS
Color space                    : YUV
Chroma subsampling             : 4:2:0
Bit depth                      : 8 bits
Scan type                      : Progressive
Bits/(Pixel*Frame)             : 0.034
Stream size                    : 559 MiB (87%)
Title                          : GOPISAHI
Writing library                : x264 core 155 r2893 b00bcaf

Audio
Format                         : AAC
Duration                       : 2 h 10 min
Bit rate                       : 86.7 kb/s
Channel(s)                     : 6 channels
Channel positions              : Front: L C R, Side: L R, LFE
Sampling rate                  : 44.1 kHz
Frame rate                     : 43.066 FPS (1024 SPF)
Compression mode               : Lossy
Stream size                    : 80.8 MiB (13%)
Title                          : GOPISAHI
Language                       : Hindi





 Vikram Vedha
(2017) on IMDb

No comments:

Post a Comment