Search

Vismaya 2017 480p Uncut HD X264 Dual Audio Hindi Kannada GOPISAHI


Format                         : Matroska
Format version                 : Version 4 / Version 2
File size                      : 347 MiB
Duration                       : 2 h 7 min
Overall bit rate               : 380 kb/s
Movie name                     : Vismaya 2017 GOPISAHI

Video
Format                         : AVC
Codec ID                       : V_MPEG4/ISO/AVC
Duration                       : 2 h 7 min
Bit rate                       : 250 kb/s
Width                          : 720 pixels
Height                         : 306 pixels
Display aspect ratio           : 2.35:1
Frame rate mode                : Constant
Frame rate                     : 25.000 FPS
Color space                    : YUV
Chroma subsampling             : 4:2:0
Bit depth                      : 8 bits
Scan type                      : Progressive
Bits/(Pixel*Frame)             : 0.045
Stream size                    : 228 MiB (66%)
Title                          : GOPISAHI
Writing library                : x264 core 148 r2708 86b7198

Audio #1
Format                         : AAC
Duration                       : 2 h 7 min
Bit rate                       : 63.5 kb/s
Channel(s)                     : 2 channels
Channel positions              : Front: L R
Sampling rate                  : 48.0 kHz
Frame rate                     : 46.875 FPS (1024 SPF)
Compression mode               : Lossy
Delay relative to video        : -21 ms
Stream size                    : 58.0 MiB (17%)
Title                          : GOPISAHI
Language                       : Hindi

Audio #2
Format                         : AAC
Duration                       : 2 h 7 min
Bit rate                       : 63.3 kb/s
Channel(s)                     : 2 channels
Channel positions              : Front: L R
Sampling rate                  : 48.0 kHz
Frame rate                     : 46.875 FPS (1024 SPF)
Compression mode               : Lossy
Delay relative to video        : 11 ms
Stream size                    : 57.8 MiB (17%)
Title                          : GOPISAHI
Language                       : Kannada



https://www.linkshub.me/view/fEEwERcNtw

 Nibunan
(2017) on IMDb

Post a Comment

0 Comments