+18 Parched 2015 x264 720p Esub BluRay Hindi GOPISAHI - GOPISAHI

Saturday, 14 July 2018

+18 Parched 2015 x264 720p Esub BluRay Hindi GOPISAHI


Format                         : Matroska
Format version                 : Version 4 / Version 2
File size                      : 833 MiB
Duration                       : 1 h 56 min
Overall bit rate               : 997 kb/s
Movie name                     : Parched 2015 GOPISAHI

Video
Format                         : AVC
Codec ID                       : V_MPEG4/ISO/AVC
Duration                       : 1 h 56 min
Bit rate                       : 899 kb/s
Width                          : 1 280 pixels
Height                         : 534 pixels
Display aspect ratio           : 2.40:1
Frame rate mode                : Constant
Frame rate                     : 24.000 FPS
Color space                    : YUV
Chroma subsampling             : 4:2:0
Bit depth                      : 8 bits
Scan type                      : Progressive
Bits/(Pixel*Frame)             : 0.055
Stream size                    : 752 MiB (90%)
Title                          : GOPISAHI
Writing library                : x264 core 155 r2901 7d0ff22
Language                       : Hindi

Audio
Format                         : AAC
Duration                       : 1 h 56 min
Bit rate                       : 96.0 kb/s
Channel(s)                     : 2 channels
Channel positions              : Front: L R
Sampling rate                  : 48.0 kHz
Frame rate                     : 46.875 FPS (1024 SPF)
Compression mode               : Lossy
Stream size                    : 79.9 MiB (10%)
Title                          : GOPISAHI
Language                       : Hindi

Text
Language                       : English

Menu
00:00:00.000                   : en:00:00:00.000
00:09:49.333                   : en:00:09:49.333
00:17:54.792                   : en:00:17:54.792
00:20:50.625                   : en:00:20:50.625
00:30:52.417                   : en:00:30:52.417
00:33:07.833                   : en:00:33:07.833
00:43:21.625                   : en:00:43:21.625
00:56:24.583                   : en:00:56:24.583
01:08:16.458                   : en:01:08:16.458
01:12:41.333                   : en:01:12:41.333
01:16:14.792                   : en:01:16:14.792
01:19:05.625                   : en:01:19:05.625
01:29:04.625                   : en:01:29:04.625
01:41:18.125                   : en:01:41:18.125
01:53:58.417                   : en:01:53:58.417






 Parched
(2015) on IMDb


No comments:

Post a Comment