A Quiet Place 2018 x264 720p Esub BluRay Dual Audio English Hindi GOPISAHI - GOPISAHI

Thursday, 19 July 2018

A Quiet Place 2018 x264 720p Esub BluRay Dual Audio English Hindi GOPISAHI

Format                         : Matroska
Format version                 : Version 4 / Version 2
File size                      : 802 MiB
Duration                       : 1 h 30 min
Overall bit rate               : 1 242 kb/s
Movie name                     : A Quiet Place 2018 GOPISAHI

Video
Format                         : AVC
Codec ID                       : V_MPEG4/ISO/AVC
Duration                       : 1 h 30 min
Bit rate                       : 1 050 kb/s
Width                          : 1 280 pixels
Height                         : 534 pixels
Display aspect ratio           : 2.40:1
Original display aspect ratio  : 2.40:1
Frame rate mode                : Constant
Frame rate                     : 23.976 (24000/1001) FPS
Color space                    : YUV
Chroma subsampling             : 4:2:0
Bit depth                      : 8 bits
Scan type                      : Progressive
Bits/(Pixel*Frame)             : 0.064
Stream size                    : 678 MiB (85%)
Title                          : GOPISAHI
Writing library                : x264 core 155

Audio #1
Format                         : AAC
Duration                       : 1 h 30 min
Bit rate                       : 96.0 kb/s
Channel(s)                     : 2 channels
Channel positions              : Front: L R
Sampling rate                  : 48.0 kHz
Frame rate                     : 46.875 FPS (1024 SPF)
Compression mode               : Lossy
Delay relative to video        : -43 ms
Stream size                    : 61.4 MiB (8%)
Title                          : GOPISAHI
Language                       : English

Audio #2
Format                         : AAC
Duration                       : 1 h 30 min
Bit rate                       : 96.0 kb/s
Channel(s)                     : 2 channels
Channel positions              : Front: L R
Sampling rate                  : 48.0 kHz
Frame rate                     : 46.875 FPS (1024 SPF)
Compression mode               : Lossy
Delay relative to video        : -43 ms
Stream size                    : 60.9 MiB (8%)
Title                          : GOPISAHI
Language                       : Hindi

Text
Language                       : English



TORRENT

MAGNET

https://linkshub.me/view/j8WR6fs9fa

 A Quiet Place
(2018) on IMDb


No comments:

Post a Comment