Search

Angrezi Mein Kehte Hain 2018 x264 720p HD Esub Hindi GOPISAHI

Format                         : Matroska
Format version                 : Version 4 / Version 2
File size                      : 626 MiB
Duration                       : 1 h 48 min
Overall bit rate               : 808 kb/s
Movie name                     : Angrezi Mein Kehte Hain 2018 GOPISAHI

Video
Format                         : AVC
Codec ID                       : V_MPEG4/ISO/AVC
Duration                       : 1 h 48 min
Bit rate                       : 710 kb/s
Width                          : 1 280 pixels
Height                         : 720 pixels
Display aspect ratio           : 2.35:1
Frame rate mode                : Constant
Frame rate                     : 23.976 (24000/1001) FPS
Color space                    : YUV
Chroma subsampling             : 4:2:0
Bit depth                      : 8 bits
Scan type                      : Progressive
Bits/(Pixel*Frame)             : 0.032
Stream size                    : 549 MiB (88%)
Title                          : GOPISAHI
Writing library                : x264 core 155 r2901 7d0ff22
Language                       : Hindi

Audio
Format                         : AAC
Duration                       : 1 h 48 min
Bit rate                       : 96.0 kb/s
Channel(s)                     : 2 channels
Channel positions              : Front: L R
Sampling rate                  : 48.0 kHz
Frame rate                     : 46.875 FPS (1024 SPF)
Compression mode               : Lossy
Delay relative to video        : 1 s 2 ms
Stream size                    : 74.4 MiB (12%)
Title                          : GOPISAHI
Language                       : Hindi

Text
Language                       : English




TORRENT


MAGNET

https://linkshub.me/view/FzWy2D6Gn4




 Angrezi Mein Kehte Hain
(2018) on IMDb


Post a Comment

0 Comments