Ant Man And The Wasp 2018 x264 720 CAM RIP Dual Audio English Hindi GOPISAHI - GOPISAHI

Sunday, 8 July 2018

Ant Man And The Wasp 2018 x264 720 CAM RIP Dual Audio English Hindi GOPISAHI


Format                         : Matroska
Format version                 : Version 4 / Version 2
File size                      : 331 MiB
Duration                       : 1 h 47 min
Overall bit rate               : 432 kb/s
Movie name                     : Ant Man And The Wasp 2018 GOPISAHI

Video
Format                         : AVC
Codec ID                       : V_MPEG4/ISO/AVC
Duration                       : 1 h 47 min
Bit rate                       : 300 kb/s
Width                          : 1 280 pixels
Height                         : 528 pixels
Display aspect ratio           : 2.40:1
Frame rate mode                : Constant
Frame rate                     : 23.976 (23976/1000) FPS
Color space                    : YUV
Chroma subsampling             : 4:2:0
Bit depth                      : 8 bits
Scan type                      : Progressive
Bits/(Pixel*Frame)             : 0.019
Stream size                    : 230 MiB (69%)
Title                          : GOPISAHI
Writing library                : x264 core 155 r2901 7d0ff22

Audio #1
Format                         : AAC
Duration                       : 1 h 47 min
Bit rate                       : 64.3 kb/s
Channel(s)                     : 2 channels
Channel positions              : Front: L R
Sampling rate                  : 48.0 kHz
Frame rate                     : 46.875 FPS (1024 SPF)
Compression mode               : Lossy
Stream size                    : 49.4 MiB (15%)
Title                          : GOPISAHI
Language                       : Hindi

Audio #2
Format                         : AAC
Duration                       : 1 h 47 min
Bit rate                       : 64.6 kb/s
Channel(s)                     : 2 channels
Channel positions              : Front: L R
Sampling rate                  : 48.0 kHz
Frame rate                     : 46.875 FPS (1024 SPF)
Compression mode               : Lossy
Stream size                    : 49.5 MiB (15%)
Title                          : GOPISAHI
Language                       : English







 Ant-Man and the Wasp
(2018) on IMDb

No comments:

Post a Comment