Avengers Infinity War 2018 x264 720p Esub HD Dual Audio English Hindi (CAM) GOPISAHI - GOPISAHI

Tuesday, 31 July 2018

Avengers Infinity War 2018 x264 720p Esub HD Dual Audio English Hindi (CAM) GOPISAHI


Format                         : Matroska
Format version                 : Version 4 / Version 2
File size                      : 816 MiB
Duration                       : 2 h 29 min
Overall bit rate               : 762 kb/s
Movie name                     : Avengers Infinity War 2018 GOPISAHI

Video
Format                         : AVC
Codec ID                       : V_MPEG4/ISO/AVC
Duration                       : 2 h 29 min
Bit rate                       : 599 kb/s
Width                          : 1 280 pixels
Height                         : 536 pixels
Display aspect ratio           : 2.40:1
Frame rate mode                : Constant
Frame rate                     : 24.000 FPS
Color space                    : YUV
Chroma subsampling             : 4:2:0
Bit depth                      : 8 bits
Scan type                      : Progressive
Bits/(Pixel*Frame)             : 0.036
Stream size                    : 641 MiB (79%)
Title                          : GOPISAHI
Writing library                : x264 core 155 r2901 7d0ff22

Audio #1
Format                         : AAC
Duration                       : 2 h 29 min
Bit rate                       : 84.8 kb/s
Channel(s)                     : 6 channels
Channel positions              : Front: L C R, Side: L R, LFE
Sampling rate                  : 44.1 kHz
Frame rate                     : 43.066 FPS (1024 SPF)
Compression mode               : Lossy
Stream size                    : 90.6 MiB (11%)
Title                          : GOPISAHI
Language                       : English

Audio #2
Format                         : AAC
Duration                       : 2 h 29 min
Bit rate                       : 75.7 kb/s
Channel(s)                     : 6 channels
Channel positions              : Front: L C R, Side: L R, LFE
Sampling rate                  : 44.1 kHz
Frame rate                     : 43.066 FPS (1024 SPF)
Compression mode               : Lossy
Stream size                    : 80.8 MiB (10%)
Title                          : GOPISAHI
Language                       : Hindi

Text
Language                       : English

Menu
00:00:00.000                   : en:Thanos Is Coming
00:11:28.083                   : en:Infinity Stones
00:18:14.042                   : en:Fight For The Time Stone
00:27:23.083                   : en:Who The Hell Are You Guys?
00:35:48.083                   : en:Wanda And Vision
00:42:23.083                   : en:Knowhere
00:54:12.042                   : en:Avengers Assemble
00:59:36.083                   : en:Take The Fight To Him
01:05:07.083                   : en:The Soul Stone
01:10:53.083                   : en:Nidavellir
01:17:07.042                   : en:Titan
01:24:14.042                   : en:Vormir
01:31:08.000                   : en:"Wakanda Forever"
01:42:00.083                   : en:Stormbreaker
01:45:57.042                   : en:Titan Confrontation
01:53:04.083                   : en:A Vision Situation
01:58:53.042                   : en:The Time Stone
02:03:58.000                   : en:The End Game
02:11:13.042                   : en:Aftermath
02:17:31.042                   : en:End Credits



TORRENT

MAGNET

https://linkshub.me/view/aMBZHH38kK

 Avengers: Infinity War
(2018) on IMDb

No comments:

Post a Comment