Beyond The Clouds 2018 x264 720p DvD Esub Hindi GOPISAHI - GOPISAHI

Wednesday, 18 July 2018

Beyond The Clouds 2018 x264 720p DvD Esub Hindi GOPISAHI


Format                         : Matroska
Format version                 : Version 4 / Version 2
File size                      : 607 MiB
Duration                       : 2 h 1 min
Overall bit rate               : 696 kb/s
Movie name                     : Beyond The Clouds 2018 GOPISAHI

Video
Format                         : AVC
Codec ID                       : V_MPEG4/ISO/AVC
Duration                       : 2 h 1 min
Bit rate                       : 599 kb/s
Width                          : 1 280 pixels
Height                         : 648 pixels
Display aspect ratio           : 1.975
Frame rate mode                : Constant
Frame rate                     : 23.976 (24000/1001) FPS
Color space                    : YUV
Chroma subsampling             : 4:2:0
Bit depth                      : 8 bits
Scan type                      : Progressive
Bits/(Pixel*Frame)             : 0.030
Stream size                    : 522 MiB (86%)
Title                          : GOPISAHI
Writing library                : x264 core 155 r2901 7d0ff22

Audio
Format                         : AAC
Duration                       : 2 h 1 min
Bit rate                       : 96.0 kb/s
Channel(s)                     : 2 channels
Channel positions              : Front: L R
Sampling rate                  : 48.0 kHz
Frame rate                     : 46.875 FPS (1024 SPF)
Compression mode               : Lossy
Delay relative to video        : 15 ms
Stream size                    : 83.0 MiB (14%)
Title                          : GOPISAHI
Language                       : Hindi

Text
Language                       : English



TORRENT

MAGNET

https://www.linkshub.me/view/jh14x5cDaA

 Beyond the Clouds
(2017) on IMDb




No comments:

Post a Comment