Search

Dietland 2018 S 01 E05 E08 x264 720p Dual Audio Hindi English GOPISAHI


Format                         : Matroska
Format version                 : Version 4 / Version 2
File size                      : 215 MiB
Duration                       : 43 min 24 s
Overall bit rate               : 693 kb/s

Video
Format                         : AVC
Codec ID                       : V_MPEG4/ISO/AVC
Duration                       : 43 min 22 s
Bit rate                       : 499 kb/s
Width                          : 1 280 pixels
Height                         : 720 pixels
Display aspect ratio           : 16:9
Frame rate mode                : Constant
Frame rate                     : 23.976 (23976/1000) FPS
Color space                    : YUV
Chroma subsampling             : 4:2:0
Bit depth                      : 8 bits
Scan type                      : Progressive
Bits/(Pixel*Frame)             : 0.023
Stream size                    : 155 MiB (72%)
Title                          : GOPISAHI
Writing library                : x264 core 155 r2901 7d0ff22

Audio #1
Format                         : AAC
Duration                       : 43 min 24 s
Bit rate                       : 96.0 kb/s
Channel(s)                     : 2 channels
Channel positions              : Front: L R
Sampling rate                  : 48.0 kHz
Frame rate                     : 46.875 FPS (1024 SPF)
Compression mode               : Lossy
Delay relative to video        : -21 ms
Stream size                    : 29.7 MiB (14%)
Title                          : GOPISAHI
Language                       : Hindi

Audio #2
Format                         : AAC
Duration                       : 43 min 22 s
Bit rate                       : 96.0 kb/s
Channel(s)                     : 2 channels
Channel positions              : Front: L R
Sampling rate                  : 48.0 kHz
Frame rate                     : 46.875 FPS (1024 SPF)
Compression mode               : Lossy
Delay relative to video        : 1 ms
Stream size                    : 29.7 MiB (14%)
Title                          : GOPISAHI
Language                       : English



TORRENT

MAGNET

https://linkshub.me/view/G3P3T2mt6F

https://linkshub.me/view/DPbh0scPRz

https://linkshub.me/view/kKyKCWqMyg

https://linkshub.me/view/BbCPFpq9hg

https://linkshub.me/view/SKw680FSWc

https://linkshub.me/view/8dt5ssD21X

https://linkshub.me/view/yTgAakx1nh

https://linkshub.me/view/PgZQWcDe65

https://linkshub.me/view/wTshzsSrYT

https://linkshub.me/view/m9QCWEpcK6

 Dietland
(2018) on IMDb


Post a Comment

0 Comments