Game of Thrones 2011 S01 E08- The Pointy End x264 720p Esub BluRay Dual Audio English Hindi GOPISAHI - GOPISAHI

Saturday, 7 July 2018

Game of Thrones 2011 S01 E08- The Pointy End x264 720p Esub BluRay Dual Audio English Hindi GOPISAHI


Format                         : Matroska
Format version                 : Version 4 / Version 2
File size                      : 322 MiB
Duration                       : 58 min 8 s
Overall bit rate               : 776 kb/s
Movie name                     : Game of Thrones 2011 S01E08- The Pointy End GOPISAHI

Video
Format                         : AVC
Codec ID                       : V_MPEG4/ISO/AVC
Duration                       : 58 min 8 s
Bit rate                       : 600 kb/s
Width                          : 1 280 pixels
Height                         : 720 pixels
Display aspect ratio           : 16:9
Frame rate mode                : Constant
Frame rate                     : 23.976 (24000/1001) FPS
Color space                    : YUV
Chroma subsampling             : 4:2:0
Bit depth                      : 8 bits
Scan type                      : Progressive
Bits/(Pixel*Frame)             : 0.027
Stream size                    : 249 MiB (77%)
Title                          : GOPISAHI
Writing library                : x264 core 155 r2893 b00bcaf

Audio #1
Format                         : AAC
Duration                       : 58 min 8 s
Bit rate                       : 84.2 kb/s
Channel(s)                     : 6 channels
Channel positions              : Front: L C R, Side: L R, LFE
Sampling rate                  : 44.1 kHz
Frame rate                     : 43.066 FPS (1024 SPF)
Compression mode               : Lossy
Stream size                    : 35.0 MiB (11%)
Title                          : GOPISAHI
Language                       : English

Audio #2
Format                         : AAC
Duration                       : 58 min 8 s
Bit rate                       : 89.1 kb/s
Channel(s)                     : 6 channels
Channel positions              : Front: L C R, Side: L R, LFE
Sampling rate                  : 44.1 kHz
Frame rate                     : 43.066 FPS (1024 SPF)
Compression mode               : Lossy
Stream size                    : 37.0 MiB (11%)
Title                          : GOPISAHI
Language                       : Hindi

Tex
Language                       : English

Menu
00:00:00.000                   : en:00:00:00.000
00:00:06.089                   : en:00:00:06.006
00:01:53.155                   : en:00:01:53.113
00:07:13.350                   : en:00:07:13.350
00:16:25.151                   : en:00:16:25.151
00:26:15.032                   : en:00:26:15.032
00:36:19.844                   : en:00:36:19.844
00:43:21.974                   : en:00:43:21.974
00:57:00.959                   : en:00:57:00.834






TORRENT


MAGNET


https://linkshub.me/view/6cQp6DhbmC


 The Pointy End
(2011) on IMDb

1 comment: