Search

Garuda Paksa wayu 2004 x264 720p Esub HD Hindi Thai Telugu Tamil GOPISAHI


Format                         : Matroska
Format version                 : Version 4 / Version 2
File size                      : 801 MiB
Duration                       : 1 h 53 min
Overall bit rate               : 988 kb/s
Movie name                     : Garuda Paksa wayu 2004 GOPISAHI

Video
Format                         : AVC
Codec ID                       : V_MPEG4/ISO/AVC
Duration                       : 1 h 53 min
Bit rate                       : 599 kb/s
Width                          : 1 280 pixels
Height                         : 668 pixels
Display aspect ratio           : 1.916
Frame rate mode                : Constant
Frame rate                     : 23.976 (24000/1001) FPS
Color space                    : YUV
Chroma subsampling             : 4:2:0
Bit depth                      : 8 bits
Scan type                      : Progressive
Bits/(Pixel*Frame)             : 0.029
Stream size                    : 485 MiB (61%)
Title                          : GOPISAHI
Writing library                : x264 core 155 r2901 7d0ff22

Matrix coefficients            : BT.709

Audio #1
Format                         : AAC
Duration                       : 1 h 53 min
Bit rate                       : 96.0 kb/s
Channel(s)                     : 2 channels
Channel positions              : Front: L R
Sampling rate                  : 48.0 kHz
Frame rate                     : 46.875 FPS (1024 SPF)
Compression mode               : Lossy
Delay relative to video        : -21 ms
Stream size                    : 78.1 MiB (10%)
Title                          : GOPISAHI
Language                       : Telugu

Audio #2
Format                         : AAC
Duration                       : 1 h 53 min
Bit rate                       : 96.0 kb/s
Channel(s)                     : 2 channels
Channel positions              : Front: L R
Sampling rate                  : 48.0 kHz
Frame rate                     : 46.875 FPS (1024 SPF)
Compression mode               : Lossy
Delay relative to video        : -21 ms
Stream size                    : 77.9 MiB (10%)
Title                          : GOPISAHI
Language                       : Tamil

Audio #3
Format                         : AAC
Duration                       : 1 h 53 min
Bit rate                       : 96.0 kb/s
Channel(s)                     : 2 channels
Channel positions              : Front: L R
Sampling rate                  : 48.0 kHz
Frame rate                     : 46.875 FPS (1024 SPF)
Compression mode               : Lossy
Delay relative to video        : -21 ms
Stream size                    : 78.0 MiB (10%)
Title                          : GOPISAHI
Language                       : Hindi

Audio #4
Format                         : AAC
Duration                       : 1 h 53 min
Bit rate                       : 96.0 kb/s
Channel(s)                     : 2 channels
Channel positions              : Front: L R
Sampling rate                  : 48.0 kHz
Frame rate                     : 46.875 FPS (1024 SPF)
Compression mode               : Lossy
Delay relative to video        : -21 ms
Stream size                    : 78.0 MiB (10%)
Title                          : GOPISAHI
Language                       : Thai

Text
Language                       : English




TORRENT

MAGNET

https://linkshub.me/view/Gj0FkEpB6q

 Garuda
(2004) on IMDb


Post a Comment

1 Comments