Search

Ghostbusters 1984 x264 720p Esub BluRay Dual Audio English Hindi Telugu GOPISAHI


Format                         : Matroska
Format version                 : Version 4 / Version 2
File size                      : 670 MiB
Duration                       : 1 h 45 min
Overall bit rate               : 891 kb/s
Movie name                     : Ghostbusters 1984 GOPISAHI

Video
Format                         : AVC
Codec ID                       : V_MPEG4/ISO/AVC
Duration                       : 1 h 45 min
Bit rate                       : 599 kb/s
Width                          : 1 280 pixels
Height                         : 536 pixels
Display aspect ratio           : 2.40:1
Frame rate mode                : Constant
Frame rate                     : 25.000 FPS
Color space                    : YUV
Chroma subsampling             : 4:2:0
Bit depth                      : 8 bits
Scan type                      : Progressive
Bits/(Pixel*Frame)             : 0.035
Stream size                    : 450 MiB (67%)
Title                          : GOPISAHI
Writing library                : x264 core 155 r2901 7d0ff22

Audio #1
Format                         : AAC
Duration                       : 1 h 45 min
Bit rate                       : 96.0 kb/s
Channel(s)                     : 2 channels
Channel positions              : Front: L R
Sampling rate                  : 48.0 kHz
Frame rate                     : 46.875 FPS (1024 SPF)
Compression mode               : Lossy
Delay relative to video        : -21 ms
Stream size                    : 72.3 MiB (11%)
Title                          : GOPISAHI
Language                       : Hindi

Audio #2
Format                         : AAC
Duration                       : 1 h 45 min
Bit rate                       : 96.0 kb/s
Channel(s)                     : 2 channels
Channel positions              : Front: L R
Sampling rate                  : 48.0 kHz
Frame rate                     : 46.875 FPS (1024 SPF)
Compression mode               : Lossy
Delay relative to video        : -21 ms
Stream size                    : 72.3 MiB (11%)
Title                          : GOPISAHI
Language                       : Telugu

Audio #3
Format                         : AAC
Duration                       : 1 h 45 min
Bit rate                       : 96.0 kb/s
Channel(s)                     : 2 channels
Channel positions              : Front: L R
Sampling rate                  : 48.0 kHz
Frame rate                     : 46.875 FPS (1024 SPF)
Compression mode               : Lossy
Delay relative to video        : -21 ms
Stream size                    : 72.3 MiB (11%)
Title                          : GOPISAHI
Language                       : English

Text
Language                       : English

Menu
00:00:00.000                   : en:(01)00:00:00:000
00:06:39.160                   : en:(02)00:06:39:065
00:15:46.600                   : en:(03)00:15:46:445
00:21:50.080                   : en:(04)00:21:50:058
00:28:35.760                   : en:(05)00:28:35:755
00:34:52.080                   : en:(06)00:34:51:964
00:39:06.680                   : en:(07)00:39:06:677
00:48:46.720                   : en:(08)00:48:46:715
00:52:16.000                   : en:(09)00:52:15:882
00:55:04.120                   : en:(10)00:55:04:050
01:04:33.440                   : en:(11)01:04:33:411
01:10:42.000                   : en:(12)01:10:41:946
01:13:35.440                   : en:(13)01:13:35:285
01:18:58.680                   : en:(14)01:18:58:525
01:25:17.040                   : en:(15)01:25:17:028
01:30:44.840                   : en:(16)01:30:44:730





TORRENT

MAGNET

https://www.linkshub.me/view/fYqrWPXnBn


 Ghostbusters
(1984) on IMDb



Post a Comment

0 Comments