Search

Jia Aur Jia 2017 x264 720p HD TV Hindi GOPISAHI


Format                         : Matroska
Format version                 : Version 4 / Version 2
File size                      : 552 MiB
Duration                       : 1 h 26 min
Overall bit rate               : 896 kb/s
Movie name                     : Jia Aur Jia 2017 GOPISAHI

Video
Format                         : AVC
Codec ID                       : V_MPEG4/ISO/AVC
Duration                       : 1 h 26 min
Bit rate                       : 799 kb/s
Width                          : 1 280 pixels
Height                         : 646 pixels
Display aspect ratio           : 1.981
Frame rate mode                : Constant
Frame rate                     : 23.976 (24000/1001) FPS
Color space                    : YUV
Chroma subsampling             : 4:2:0
Bit depth                      : 8 bits
Scan type                      : Progressive
Bits/(Pixel*Frame)             : 0.040
Stream size                    : 492 MiB (89%)
Title                          : GOPISAHI
Writing library                : x264 core 155 r2901 7d0ff22

Audio
Format                         : AAC
Duration                       : 1 h 26 min
Bit rate                       : 96.0 kb/s
Channel(s)                     : 2 channels
Channel positions              : Front: L R
Sampling rate                  : 48.0 kHz
Frame rate                     : 46.875 FPS (1024 SPF)
Compression mode               : Lossy
Delay relative to video        : -21 ms
Stream size                    : 58.6 MiB (11%)
Title                          : GOPISAHI
Language                       : Hindi



TORRENT

MAGNET

https://linkshub.me/view/5m9MGAtHWw


 Jia aur Jia
(2017) on IMDb


Post a Comment

0 Comments