Laali Ki Shaadi Mein Laaddoo Deewana 2017 x264 720p Hindi GOPISAHI - GOPISAHI

Sunday, 29 July 2018

Laali Ki Shaadi Mein Laaddoo Deewana 2017 x264 720p Hindi GOPISAHI


Format                         : Matroska
Format version                 : Version 4 / Version 2
File size                      : 620 MiB
Duration                       : 2 h 4 min
Overall bit rate               : 697 kb/s
Movie name                     : Laali Ki Shaadi Mein Laaddoo Deewana 2017 GOPISAHI

Video
Format                         : AVC
Codec ID                       : V_MPEG4/ISO/AVC
Duration                       : 2 h 4 min
Bit rate                       : 599 kb/s
Width                          : 1 274 pixels
Height                         : 644 pixels
Display aspect ratio           : 1.978
Frame rate mode                : Constant
Frame rate                     : 25.000 FPS
Color space                    : YUV
Chroma subsampling             : 4:2:0
Bit depth                      : 8 bits
Scan type                      : Progressive
Bits/(Pixel*Frame)             : 0.029
Stream size                    : 532 MiB (86%)
Title                          : GOPISAHI
Writing library                : x264 core 155 r2901 7d0ff22

Audio
Format                         : AAC
Duration                       : 2 h 4 min
Bit rate                       : 96.0 kb/s
Channel(s)                     : 1 channel
Channel positions              : Front: C
Sampling rate                  : 48.0 kHz
Frame rate                     : 46.875 FPS (1024 SPF)
Compression mode               : Lossy
Delay relative to video        : -21 ms
Stream size                    : 85.5 MiB (14%)
Title                          : GOPISAHI
Language                       : Hindi






 Laali Ki Shaadi Mein Laaddoo Deewana
(2017) on IMDb

3 comments:

  1. Acha thik hai please tell bro...🙏
    Kye 720p Bluray Ko 1080p Bana sakte hai please Bolo yrr Request hai🙏🙏🙏🙏🙏🙏🙏🙏🙏🙏🙏🙏🙏🙏🙏🙏🙏🙏🙏🙏🙏🙏🙏🙏🙏🙏🙏🙏🙏🙏🙏🙏🙏🙏🙏🙏🙏🙏🙏🙏🙏🙏🙏🙏🙏🙏🙏🙏🙏🙏🙏🙏🙏🙏🙏🙏🙏🙏🙏🙏🙏🙏🙏😣🙏🙏🙏🙏🙏🙏🙏🙏🙏🙏🙏🙏🙏🙏🙏🙏🙏🙏🙏🙏🙏🙏🙏🙏🙏🙏

    ReplyDelete
    Replies
    1. BRO low se high kabi be nahi ho sakta , hadbreack samml for 599 bit, audio 96 kbps sterio , encoder present very slow slekt , check ample the encode viedo no good 699 bit chose ok

      Delete
  2. Hlo bro please upload kaala 2018 hindi original audio 720p as soon as possible.

    ReplyDelete