Search

Manje Bistre 2017 x264 720p HD Esub Punjabi GOPISAHI


Format                         : Matroska
Format version                 : Version 4 / Version 2
File size                      : 677 MiB
Duration                       : 2 h 15 min
Overall bit rate               : 698 kb/s
Movie name                     : Manje Bistre 2017 GOPISAHI

Video
Format                         : AVC
Codec ID                       : V_MPEG4/ISO/AVC
Duration                       : 2 h 15 min
Bit rate                       : 599 kb/s
Width                          : 1 280 pixels
Height                         : 572 pixels
Display aspect ratio           : 2.25:1
Frame rate mode                : Constant
Frame rate                     : 29.970 (30000/1001) FPS
Color space                    : YUV
Chroma subsampling             : 4:2:0
Bit depth                      : 8 bits
Scan type                      : Progressive
Bits/(Pixel*Frame)             : 0.027
Stream size                    : 581 MiB (86%)
Title                          : GOPISAHI
Writing library                : x264 core 155 r2901 7d0ff22

Audio
Format                         : AAC
Duration                       : 2 h 15 min
Bit rate                       : 96.0 kb/s
Channel(s)                     : 2 channels
Channel positions              : Front: L R
Sampling rate                  : 48.0 kHz
Frame rate                     : 46.875 FPS (1024 SPF)
Compression mode               : Lossy
Delay relative to video        : -42 ms
Stream size                    : 93.4 MiB (14%)
Title                          : GOPISAHI
Language                       : Panjabi

Text
Language                       : English




TORRENT

MAGNET

https://linkshub.me/view/taTBjXbkza

 Manje Bistre
(2017) on IMDb

Post a Comment

0 Comments