Mission Impossible Fallout 2018 x264 720p CAM Dual Audio English Hindi GOPISAHI - GOPISAHI

Saturday, 28 July 2018

Mission Impossible Fallout 2018 x264 720p CAM Dual Audio English Hindi GOPISAHI

https://3.bp.blogspot.com/-MO4-EnoI6Ec/W1nuoNijFtI/AAAAAAAAbFY/HKmiWHV64J0Yd4iWcUwWNJA0DDJ9J4K3wCLcBGAs/s1600/MV5BMjExMTc0NzQ0OV5BMl5BanBnXkFtZTgwNDE3MTE3NDM%2540._V1_QL50_SY1000_CR0%252C0%252C674%252C1000_AL_.jpg
Format                         : Matroska
Format version                 : Version 4 / Version 2
File size                      : 618 MiB
Duration                       : 2 h 17 min
Overall bit rate               : 631 kb/s
Movie name                     : Mission Impossible Fallout 2018 GOPISAHI

Video
Format                         : AVC
Codec ID                       : V_MPEG4/ISO/AVC
Duration                       : 2 h 17 min
Bit rate                       : 499 kb/s
Width                          : 1 270 pixels
Height                         : 606 pixels
Display aspect ratio           : 2.096
Frame rate mode                : Constant
Frame rate                     : 29.970 FPS
Color space                    : YUV
Chroma subsampling             : 4:2:0
Bit depth                      : 8 bits
Scan type                      : Progressive
Bits/(Pixel*Frame)             : 0.022
Stream size                    : 489 MiB (79%)
Title                          : GOPISAHI
Writing library                : x264 core 155 r2901 7d0ff22

Audio #1
Format                         : AAC
Duration                       : 2 h 17 min
Bit rate                       : 64.4 kb/s
Channel(s)                     : 2 channels
Channel positions              : Front: L R
Sampling rate                  : 48.0 kHz
Frame rate                     : 46.875 FPS (1024 SPF)
Compression mode               : Lossy
Delay relative to video        : -42 ms
Stream size                    : 63.1 MiB (10%)
Title                          : GOPISAHI
Language                       : Hindi

Audio #2
Format                         : AAC
Duration                       : 2 h 17 min
Bit rate                       : 64.3 kb/s
Channel(s)                     : 2 channels
Channel positions              : Front: L R
Sampling rate                  : 48.0 kHz
Frame rate                     : 46.875 FPS (1024 SPF)
Compression mode               : Lossy
Delay relative to video        : -42 ms
Stream size                    : 63.0 MiB (10%)
Title                          : GOPISAHI
Language                       : English






TORRENT

MAGNET

https://linkshub.me/view/ejLLFzFqLq

 Mission: Impossible - Fallout
(2018) on IMDb

No comments:

Post a Comment