M.S.Dhoni The Untold Story 2016 x264 720p BluRay Hindi GOPISAHI - GOPISAHI

Monday, 23 July 2018

M.S.Dhoni The Untold Story 2016 x264 720p BluRay Hindi GOPISAHI


Format                         : Matroska
Format version                 : Version 4 / Version 2
File size                      : 776 MiB
Duration                       : 3 h 4 min
Overall bit rate               : 588 kb/s
Movie name                     : M.S.Dhoni The Untold Story 2016 GOPISAHI

Video
Format                         : AVC
Codec ID                       : V_MPEG4/ISO/AVC
Duration                       : 3 h 4 min
Bit rate                       : 500 kb/s
Width                          : 1 280 pixels
Height                         : 538 pixels
Display aspect ratio           : 2.40:1
Original display aspect ratio  : 2.40:1
Frame rate mode                : Constant
Frame rate                     : 24.000 FPS
Color space                    : YUV
Chroma subsampling             : 4:2:0
Bit depth                      : 8 bits
Scan type                      : Progressive
Bits/(Pixel*Frame)             : 0.030
Stream size                    : 660 MiB (85%)
Title                          : GOPISAHI
Writing library                : x264 core 155 r2893 b00bcaf
Language                       : Hindi

Audio
Format                         : AAC
Duration                       : 3 h 4 min
Bit rate                       : 85.7 kb/s
Channel(s)                     : 6 channels
Channel positions              : Front: L C R, Side: L R, LFE
Sampling rate                  : 44.1 kHz
Frame rate                     : 43.066 FPS (1024 SPF)
Compression mode               : Lossy
Stream size                    : 113 MiB (15%)
Title                          : GOPISAHI
Language                       : Hindi



TORRENT

MAGNET

https://linkshub.me/view/RYzW9DXRHs

 M.S. Dhoni: The Untold Story
(2016) on IMDb



1 comment:

  1. Thank you very much for accept my request.
    Your work is appreciated

    ReplyDelete