My Birthday Song 2018 x264 720p HD Esub Hindi GOPISAHI - GOPISAHI

Saturday, 7 July 2018

My Birthday Song 2018 x264 720p HD Esub Hindi GOPISAHI


Format                         : Matroska
Format version                 : Version 4 / Version 2
File size                      : 524 MiB
Duration                       : 1 h 31 min
Overall bit rate               : 797 kb/s
Movie name                     : My Birthday Song 2018 GOPISAHI

Video
Format                         : AVC
Codec ID                       : V_MPEG4/ISO/AVC
Duration                       : 1 h 31 min
Bit rate                       : 699 kb/s
Width                          : 1 280 pixels
Height                         : 538 pixels
Display aspect ratio           : 2.40:1
Frame rate mode                : Constant
Frame rate                     : 24.000 FPS
Color space                    : YUV
Chroma subsampling             : 4:2:0
Bit depth                      : 8 bits
Scan type                      : Progressive
Bits/(Pixel*Frame)             : 0.042
Stream size                    : 460 MiB (88%)
Title                          : GOPISAHI
Writing library                : x264 core 148 r2708 86b7198

Audio
Format                         : AAC
Duration                       : 1 h 31 min
Bit rate                       : 96.0 kb/s
Channel(s)                     : 2 channels
Channel positions              : Front: L R
Sampling rate                  : 48.0 kHz
Frame rate                     : 46.875 FPS (1024 SPF)
Compression mode               : Lossy
Delay relative to video        : -21 ms
Stream size                    : 63.4 MiB (12%)
Title                          : GOPISAHI
Language                       : Hindi

Text
Language                       : English





 My Birthday Song
(2018) on IMDb


No comments:

Post a Comment