Nanak Shah Fakir (BABA NANAK) 2018 x264 720p HD Hindi GOPISAHI - GOPISAHI

Monday, 23 July 2018

Nanak Shah Fakir (BABA NANAK) 2018 x264 720p HD Hindi GOPISAHI


Format                         : Matroska
Format version                 : Version 4 / Version 2
File size                      : 685 MiB
Duration                       : 2 h 17 min
Overall bit rate               : 696 kb/s
Movie name                     : Nanak Shah Fakir 2018 GOPISAHI

Video
Format                         : AVC
Codec ID                       : V_MPEG4/ISO/AVC
Duration                       : 2 h 17 min
Bit rate                       : 599 kb/s
Width                          : 1 280 pixels
Height                         : 536 pixels
Display aspect ratio           : 2.40:1
Frame rate mode                : Constant
Frame rate                     : 25.000 FPS
Color space                    : YUV
Chroma subsampling             : 4:2:0
Bit depth                      : 8 bits
Scan type                      : Progressive
Bits/(Pixel*Frame)             : 0.035
Stream size                    : 588 MiB (86%)
Title                          : GOPISAHI
Writing library                : x264 core 155 r2901 7d0ff22

Audio
Format                         : AAC
Duration                       : 2 h 17 min
Bit rate                       : 96.0 kb/s
Channel(s)                     : 1 channel
Channel positions              : Front: C
Sampling rate                  : 48.0 kHz
Frame rate                     : 46.875 FPS (1024 SPF)
Compression mode               : Lossy
Delay relative to video        : -21 ms
Stream size                    : 94.1 MiB (14%)
Title                          : GOPISAHI
Language                       : Panjabi

Menu
00:00:00.000                   : en:1
00:04:30.840                   : en:2
00:17:07.440                   : en:3
00:57:28.000                   : en:4
01:04:34.920                   : en:5
01:10:04.320                   : en:6
01:43:38.360                   : en:7
01:49:02.800                   : en:8
01:56:24.520                   : en:9
02:07:27.480                   : en:10




TORRENT

MAGNET

https://linkshub.me/view/4X0XjCKqpp

 Nanak Shah Fakir
(2014) on IMDb


1 comment:

  1. Please upload Vadhayiyaan Ji Vadhayiyaan (2018)

    ReplyDelete