Pappa Tamne Nahi Samjaay 2017 x264 720p HC Gujarati GOPISAHI - GOPISAHI

Friday, 13 July 2018

Pappa Tamne Nahi Samjaay 2017 x264 720p HC Gujarati GOPISAHI

Format version                 : Version 4 / Version 2
File size                      : 602 MiB
Duration                       : 2 h 20 min
Overall bit rate               : 597 kb/s
Movie name                     : Pappa Tamne Nahi Samjaay 2017 GOPISAHI

Video
Format                         : AVC
Codec ID                       : V_MPEG4/ISO/AVC
Duration                       : 2 h 20 min
Bit rate                       : 499 kb/s
Width                          : 1 280 pixels
Height                         : 534 pixels
Display aspect ratio           : 2.579
Original display aspect ratio  : 2.578
Frame rate mode                : Constant
Frame rate                     : 25.000 FPS
Color space                    : YUV
Chroma subsampling             : 4:2:0
Bit depth                      : 8 bits
Scan type                      : Progressive
Bits/(Pixel*Frame)             : 0.029
Stream size                    : 503 MiB (84%)
Title                          : GOPISAHI
Writing library                : x264 core 155 r2901 7d0ff22
Language                       : Gujarati

Audio
Format                         : AAC
Duration                       : 2 h 20 min
Bit rate                       : 96.0 kb/s
Channel(s)                     : 2 channels
Channel positions              : Front: L R
Sampling rate                  : 48.0 kHz
Frame rate                     : 46.875 FPS (1024 SPF)
Compression mode               : Lossy
Delay relative to video        : -42 ms
Stream size                    : 96.9 MiB (16%)
Title                          : GOPISAHI
Language                       : Gujarati





TORRENT

MAGNET


https://linkshub.me/view/pzHjGz9hNb


 Pappa Tamne Nahi Samjaay
(2017) on IMDb



No comments:

Post a Comment