Parenthood 1989 x264 720p Esub BluRay Dual Audio English Hindi GOPISAHI - GOPISAHI

Wednesday, 25 July 2018

Parenthood 1989 x264 720p Esub BluRay Dual Audio English Hindi GOPISAHI


Format                         : Matroska
Format version                 : Version 4 / Version 2
File size                      : 774 MiB
Duration                       : 2 h 3 min
Overall bit rate               : 875 kb/s
Movie name                     : Parenthood 1989 GOPISAHI

Video
Format                         : AVC
Codec ID                       : V_MPEG4/ISO/AVC
Duration                       : 2 h 3 min
Bit rate                       : 700 kb/s
Width                          : 1 280 pixels
Height                         : 696 pixels
Display aspect ratio           : 1.85:1
Frame rate mode                : Constant
Frame rate                     : 23.976 (24000/1001) FPS
Color space                    : YUV
Chroma subsampling             : 4:2:0
Bit depth                      : 8 bits
Scan type                      : Progressive
Bits/(Pixel*Frame)             : 0.033
Stream size                    : 619 MiB (80%)
Title                          : GOPISAHI
Writing library                : x264

Audio #1
Format                         : AAC
Duration                       : 2 h 3 min
Bit rate                       : 80.6 kb/s
Channel(s)                     : 6 channels
Channel positions              : Front: L C R, Side: L R, LFE
Sampling rate                  : 44.1 kHz
Frame rate                     : 43.066 FPS (1024 SPF)
Compression mode               : Lossy
Stream size                    : 71.2 MiB (9%)
Title                          : GOPISAHI
Language                       : English

Audio #2
Format                         : AAC
Duration                       : 2 h 3 min
Bit rate                       : 91.9 kb/s
Channel(s)                     : 6 channels
Channel positions              : Front: L C R, Side: L R, LFE
Sampling rate                  : 44.1 kHz
Frame rate                     : 43.066 FPS (1024 SPF)
Compression mode               : Lossy
Delay relative to video        : 1 s 21 ms
Stream size                    : 81.2 MiB (10%)
Title                          : GOPISAHI
Language                       : Hindi

Text
Language                       : English



TORRENT

MAGNET

https://linkshub.me/view/f9R7AxNsGG


 Parenthood
(1989) on IMDb


No comments:

Post a Comment