Sacred Games 2018 S01 Hindi 720p GOPISAHI - GOPISAHI

Sunday, 8 July 2018

Sacred Games 2018 S01 Hindi 720p GOPISAHI

MV5BMTU3MzQ3OTcwNF5BMl5BanBnXkFtZTgwMzc0NjQ0NTM%2540._V1_QL50_SY1000_CR0%252C0%252C674%252C1000_AL_
Format                         : Matroska
Format version                 : Version 4 / Version 2
File size                      : 1.62 GiB
Duration                       : 6 h 30 min
Overall bit rate               : 594 kb/s
Movie name                     : Sacred Games 2018 S01 Hindi 720p GOPISAHI

Video
Format                         : AVC
Codec ID                       : V_MPEG4/ISO/AVC
Duration                       : 6 h 29 min
Bit rate                       : 499 kb/s
Width                          : 1 274 pixels
Height                         : 640 pixels
Display aspect ratio           : 1.991
Frame rate mode                : Constant
Frame rate                     : 25.000 FPS
Color space                    : YUV
Chroma subsampling             : 4:2:0
Bit depth                      : 8 bits
Scan type                      : Progressive
Bits/(Pixel*Frame)             : 0.024
Stream size                    : 1.36 GiB (84%)
Title                          : GOPISAHI
Writing library                : x264 core 155 r2901 7d0ff22

Audio
Format                         : AAC
Duration                       : 6 h 30 min
Bit rate                       : 96.0 kb/s
Channel(s)                     : 2 channels
Channel positions              : Front: L R
Sampling rate                  : 48.0 kHz
Frame rate                     : 46.875 FPS (1024 SPF)
Compression mode               : Lossy
Delay relative to video        : -21 ms
Stream size                    : 263 MiB (16%)
Title                          : GOPISAHI
Language                       : Hindi











 Sacred Games
(2018) on IMDb

No comments:

Post a Comment