Search

Sanju 2018 720p PRE DVD Hindi GOPISAHI

Format                         : Matroska
Format version                 : Version 4 / Version 2
File size                      : 639 MiB
Duration                       : 2 h 29 min
Overall bit rate               : 598 kb/s
Movie name                     : Sanju 2018 GOPISAHI

Video
Format                         : AVC
Codec ID                       : V_MPEG4/ISO/AVC
Duration                       : 2 h 29 min
Bit rate                       : 499 kb/s
Width                          : 1 280 pixels
Height                         : 542 pixels
Display aspect ratio           : 2.35:1
Frame rate mode                : Constant
Frame rate                     : 30.000 FPS
Color space                    : YUV
Chroma subsampling             : 4:2:0
Bit depth                      : 8 bits
Scan type                      : Progressive
Bits/(Pixel*Frame)             : 0.024
Stream size                    : 534 MiB (83%)
Title                          : GOPISAHI
Writing library                : x264 core 148 r2708 86b7198

Audio
Format                         : AAC
Duration                       : 2 h 29 min
Bit rate                       : 96.0 kb/s
Channel(s)                     : 2 channels
Channel positions              : Front: L R
Sampling rate                  : 44.1 kHz
Frame rate                     : 43.066 FPS (1024 SPF)
Compression mode               : Lossy
Delay relative to video        : -23 ms
Stream size                    : 103 MiB (16%)
Title                          : GOPISAHI
Language                       : Hindi










 Sanju
(2018) on IMDb


Post a Comment

0 Comments