Serenity 2005 x264 720p Esub BluRay Dual Audio English Hindi GOPISAHI - GOPISAHI

Monday, 30 July 2018

Serenity 2005 x264 720p Esub BluRay Dual Audio English Hindi GOPISAHI


Format                         : Matroska
Format version                 : Version 4 / Version 2
File size                      : 761 MiB
Duration                       : 1 h 59 min
Overall bit rate               : 894 kb/s
Movie name                     : Serenity 2005 GOPISAHI

Video
Format                         : AVC
Codec ID                       : V_MPEG4/ISO/AVC
Duration                       : 1 h 59 min
Bit rate                       : 699 kb/s
Width                          : 1 280 pixels
Height                         : 544 pixels
Display aspect ratio           : 2.35:1
Frame rate mode                : Constant
Frame rate                     : 23.976 (24000/1001) FPS
Color space                    : YUV
Chroma subsampling             : 4:2:0
Bit depth                      : 8 bits
Scan type                      : Progressive
Bits/(Pixel*Frame)             : 0.042
Stream size                    : 595 MiB (78%)
Title                          : GOPISAHI
Writing library                : x264 core 155 r2901 7d0ff22

Audio #1
Format                         : AAC
Duration                       : 1 h 58 min
Bit rate                       : 96.0 kb/s
Channel(s)                     : 2 channels
Channel positions              : Front: L R
Sampling rate                  : 48.0 kHz
Frame rate                     : 46.875 FPS (1024 SPF)
Compression mode               : Lossy
Delay relative to video        : 70 ms
Stream size                    : 81.8 MiB (11%)
Title                          : GOPISAHI
Language                       : Hindi

Audio #2
Format                         : AAC
Duration                       : 1 h 59 min
Bit rate                       : 96.0 kb/s
Channel(s)                     : 2 channels
Channel positions              : Front: L R
Sampling rate                  : 48.0 kHz
Frame rate                     : 46.875 FPS (1024 SPF)
Compression mode               : Lossy
Delay relative to video        : 9 ms
Stream size                    : 81.7 MiB (11%)
Title                          : GOPISAHI
Language                       : English

Text
Language                       : English

Menu
00:00:00.000                   : en:Living Weapon
00:05:01.760                   : en:A Better World
00:09:32.447                   : en:Aboard Serenity
00:14:50.098                   : en:Going For a Ride
00:19:50.856                   : en:Reavers
00:29:14.002                   : en:Triggered
00:36:19.260                   : en:Mr. Universe
00:44:10.273                   : en:Safe Haven
00:49:55.701                   : en:Civilized Resolution
00:55:45.175                   : en:Posing a Threat
00:59:29.316                   : en:Miranda
01:04:46.257                   : en:"Just Believe"
01:09:14.734                   : en:Suicide Mission
01:13:34.785                   : en:Learning the Secret
01:22:39.705                   : en:Caught in the Middle
01:30:19.581                   : en:Can't Stop the Signal
01:36:58.479                   : en:Fighting For a Belief
01:45:57.726                   : en:Do We Have an Order?
01:47:38.160                   : en:It's Not Over
01:53:22.796                   : en:End Titles



TORRENT

MAGNET

https://linkshub.me/view/TZwCzas8S8

 Serenity
(2005) on IMDb

No comments:

Post a Comment