Search

The Border 1982 x264 720p Esub BluRay Dual Audio English Hindi GOPISAHI


Format                         : Matroska
Format version                 : Version 4 / Version 2
File size                      : 776 MiB
Duration                       : 1 h 48 min
Overall bit rate               : 1 001 kb/s
Movie name                     : The Border 1982 GOPISAHI

Video
Format                         : AVC
Codec ID                       : V_MPEG4/ISO/AVC
Duration                       : 1 h 48 min
Bit rate                       : 799 kb/s
Width                          : 1 280 pixels
Height                         : 544 pixels
Display aspect ratio           : 2.35:1
Frame rate mode                : Constant
Frame rate                     : 23.976 (24000/1001) FPS
Color space                    : YUV
Chroma subsampling             : 4:2:0
Bit depth                      : 8 bits
Scan type                      : Progressive
Bits/(Pixel*Frame)             : 0.048
Stream size                    : 619 MiB (80%)
Title                          : GOPISAHI
Writing library                : x264 core 148 r2708 86b7198

Audio #1
Format                         : AAC
Duration                       : 1 h 48 min
Bit rate                       : 96.0 kb/s
Channel(s)                     : 2 channels
Channel positions              : Front: L R
Sampling rate                  : 48.0 kHz
Frame rate                     : 46.875 FPS (1024 SPF)
Compression mode               : Lossy
Delay relative to video        : -12 ms
Stream size                    : 74.6 MiB (10%)
Title                          : GOPISAHI
Language                       : English

Audio #2
Format                         : AAC
Duration                       : 1 h 48 min
Bit rate                       : 103 kb/s
Channel(s)                     : 6 channels
Channel positions              : Front: L C R, Side: L R, LFE
Sampling rate                  : 48.0 kHz
Frame rate                     : 46.875 FPS (1024 SPF)
Compression mode               : Lossy
Delay relative to video        : 1 s 988 ms
Stream size                    : 79.4 MiB (10%)
Title                          : GOPISAHI
Language                       : Hindi

Text
Language                       : English

Menu
00:00:00.000                   : en:Impoverished (Main Titles)
00:06:11.121                   : en:Taking Chances
00:12:55.024                   : en:New Beginning
00:18:55.092                   : en:Welcome to the Unit
00:23:58.020                   : en:Gracias, Senora
00:29:38.110                   : en:Senseless Situation
00:36:52.001                   : en:The Other Side
00:42:46.022                   : en:Baby Tricks
00:51:51.066                   : en:On the Take
00:57:08.050                   : en:Crossing the Line
01:04:45.173                   : en:Starting Trouble
01:11:21.027                   : en:The Setup
01:18:04.138                   : en:Follow the Coyote
01:25:02.139                   : en:Turn for the Worst
01:30:56.034                   : en:On the Offensive
01:36:22.151                   : en:Border Dispute
01:41:40.052                   : en:Dead End
01:45:10.095                   : en:End Titles









 The Border
(1982) on IMDb


Post a Comment

0 Comments