The Gambler 2014 x264 720p Esub BluRay Dual Audio English Hindi GOPISAHI - GOPISAHI

Sunday, 22 July 2018

The Gambler 2014 x264 720p Esub BluRay Dual Audio English Hindi GOPISAHI


Format                         : Matroska
Format version                 : Version 4 / Version 2
File size                      : 790 MiB
Duration                       : 1 h 51 min
Overall bit rate               : 986 kb/s
Movie name                     : The Gambler 2014 GOPISAHI

Video
Format                         : AVC
Codec ID                       : V_MPEG4/ISO/AVC
Duration                       : 1 h 50 min
Bit rate                       : 799 kb/s
Width                          : 1 280 pixels
Height                         : 536 pixels
Display aspect ratio           : 2.40:1
Frame rate mode                : Constant
Frame rate                     : 23.976 (24000/1001) FPS
Color space                    : YUV
Chroma subsampling             : 4:2:0
Bit depth                      : 8 bits
Scan type                      : Progressive
Bits/(Pixel*Frame)             : 0.049
Stream size                    : 634 MiB (80%)
Title                          : GOPISAHI
Writing library                : x264 core 155 r2901 7d0ff22


Audio #1
Format                         : AAC
Duration                       : 1 h 51 min
Bit rate                       : 96.0 kb/s
Channel(s)                     : 2 channels
Channel positions              : Front: L R
Sampling rate                  : 48.0 kHz
Frame rate                     : 46.875 FPS (1024 SPF)
Compression mode               : Lossy
Delay relative to video        : -21 ms
Stream size                    : 76.7 MiB (10%)
Title                          : GOPISAHI
Language                       : Hindi

Audio #2
Format                         : AAC
Duration                       : 1 h 50 min
Bit rate                       : 96.0 kb/s
Channel(s)                     : 2 channels
Channel positions              : Front: L R
Sampling rate                  : 48.0 kHz
Frame rate                     : 46.875 FPS (1024 SPF)
Compression mode               : Lossy
Delay relative to video        : -21 ms
Stream size                    : 76.7 MiB (10%)
Title                          : GOPISAHI
Language                       : English

Text
Language                       : English

Menu
00:00:00.000                   : en:00:00:00.000
00:08:21.376                   : en:00:08:21.376
00:16:46.422                   : en:00:16:46.422
00:25:22.021                   : en:00:25:22.020
00:29:16.255                   : en:00:29:16.254
00:34:09.422                   : en:00:34:09.422
00:45:08.456                   : en:00:45:08.456
00:51:00.516                   : en:00:51:00.516
00:59:08.336                   : en:00:59:08.336
01:06:22.729                   : en:01:06:22.729
01:12:39.230                   : en:01:12:39.230
01:21:58.664                   : en:01:21:58.664
01:24:17.094                   : en:01:24:17.094
01:31:11.800                   : en:01:31:11.758
01:35:35.730                   : en:01:35:35.563
01:46:04.441                   : en:01:46:04.441


TORRENT

MAGNET

https://linkshub.me/view/OmegM2gYQs

 The Gambler
(2014) on IMDb


No comments:

Post a Comment