Villain 2017 x264 720p HD Esub Dual Audio Hindi Malayalam GOPISAHI - GOPISAHI

Tuesday, 31 July 2018

Villain 2017 x264 720p HD Esub Dual Audio Hindi Malayalam GOPISAHI


Format                         : Matroska
Format version                 : Version 4 / Version 2
File size                      : 803 MiB
Duration                       : 2 h 21 min
Overall bit rate               : 792 kb/s
Movie name                     : Villain 2017 GOPISAHI

Video
Format                         : AVC
Codec ID                       : V_MPEG4/ISO/AVC
Duration                       : 2 h 21 min
Bit rate                       : 599 kb/s
Width                          : 1 280 pixels
Height                         : 544 pixels
Display aspect ratio           : 2.35:1
Frame rate mode                : Constant
Frame rate                     : 25.000 FPS
Color space                    : YUV
Chroma subsampling             : 4:2:0
Bit depth                      : 8 bits
Scan type                      : Progressive
Bits/(Pixel*Frame)             : 0.034
Stream size                    : 607 MiB (76%)
Title                          : GOPISAHI
Writing library                : x264 core 155 r2901 7d0ff22

Audio #1
Format                         : AAC
Duration                       : 2 h 21 min
Bit rate                       : 96.0 kb/s
Channel(s)                     : 2 channels
Channel positions              : Front: L R
Sampling rate                  : 48.0 kHz
Frame rate                     : 46.875 FPS (1024 SPF)
Compression mode               : Lossy
Delay relative to video        : -21 ms
Stream size                    : 96.3 MiB (12%)
Title                          : GOPISAHI
Language                       : Hindi

Audio #2
Format                         : AAC
Duration                       : 2 h 21 min
Bit rate                       : 96.0 kb/s
Channel(s)                     : 2 channels
Channel positions              : Front: L R
Sampling rate                  : 48.0 kHz
Frame rate                     : 46.875 FPS (1024 SPF)
Compression mode               : Lossy
Delay relative to video        : -21 ms
Stream size                    : 96.0 MiB (12%)
Title                          : GOPISAHI
Language                       : Malayalam

Text
Language                       : English



TORRENT

MAGNET

https://linkshub.me/view/swM1e3pEQK

 Villain
(2017) on IMDb

No comments:

Post a Comment