Vodka Diaries 2018 x264 720p HD Hindi GOPISAHI - GOPISAHI

Friday, 6 July 2018

Vodka Diaries 2018 x264 720p HD Hindi GOPISAHI


Format version                 : Version 4 / Version 2
File size                      : 623 MiB
Duration                       : 1 h 49 min
Overall bit rate               : 797 kb/s
Movie name                     : Vodka Diaries 2018 GOPISAHI

Video
ID                             : 1
Format                         : AVC
Format/Info                    : Advanced Video Codec
Format profile                 : [email protected]
Format settings                : CABAC / 16 Ref Frames
Format settings, CABAC         : Yes
Format settings, ReFrames      : 16 frames
Codec ID                       : V_MPEG4/ISO/AVC
Duration                       : 1 h 49 min
Bit rate                       : 699 kb/s
Width                          : 1 280 pixels
Height                         : 480 pixels
Display aspect ratio           : 2.667
Frame rate mode                : Constant
Frame rate                     : 23.976 (24000/1001) FPS
Color space                    : YUV
Chroma subsampling             : 4:2:0
Bit depth                      : 8 bits
Scan type                      : Progressive
Bits/(Pixel*Frame)             : 0.047
Stream size                    : 546 MiB (88%)
Title                          : GOPISAHI
Writing library                : x264 core 148 r2708 86b7198

Audio
Format                         : AAC
Duration                       : 1 h 49 min
Bit rate                       : 96.0 kb/s
Channel(s)                     : 2 channels
Channel positions              : Front: L R
Sampling rate                  : 48.0 kHz
Frame rate                     : 46.875 FPS (1024 SPF)
Compression mode               : Lossy
Delay relative to video        : -21 ms
Stream size                    : 75.2 MiB (12%)
Title                          : GOPISAHI
Language                       : Hindi








 Vodka Diaries
(2018) on IMDb

No comments:

Post a Comment