Zombie Night 2013 x264 720p Esub BluRay Dual Audio English Hindi GOPISAHI - GOPISAHI

Thursday, 26 July 2018

Zombie Night 2013 x264 720p Esub BluRay Dual Audio English Hindi GOPISAHI


Format                         : Matroska
Format version                 : Version 4 / Version 2
File size                      : 632 MiB
Duration                       : 1 h 32 min
Overall bit rate               : 954 kb/s
Movie name                     : Zombie Night 2013 GOPISAHI

Video
Format                         : AVC
Codec ID                       : V_MPEG4/ISO/AVC
Duration                       : 1 h 28 min
Bit rate                       : 799 kb/s
Width                          : 1 280 pixels
Height                         : 720 pixels
Display aspect ratio           : 16:9
Frame rate mode                : Constant
Frame rate                     : 23.976 (24000/1001) FPS
Color space                    : YUV
Chroma subsampling             : 4:2:0
Bit depth                      : 8 bits
Scan type                      : Progressive
Bits/(Pixel*Frame)             : 0.036
Stream size                    : 505 MiB (80%)
Title                          : GOPISAHI
Writing library                : x264 core 148 r2708 86b7198

Audio #1
Format                         : AAC
Duration                       : 1 h 32 min
Bit rate                       : 96.0 kb/s
Channel(s)                     : 2 channels
Channel positions              : Front: L R
Sampling rate                  : 48.0 kHz
Frame rate                     : 46.875 FPS (1024 SPF)
Compression mode               : Lossy
Delay relative to video        : -21 ms
Stream size                    : 63.8 MiB (10%)
Title                          : GOPISAHI
Language                       : Hindi

Audio #2
Format                         : AAC
Duration                       : 1 h 32 min
Bit rate                       : 92.0 kb/s
Channel(s)                     : 2 channels
Channel positions              : Front: L R
Sampling rate                  : 48.0 kHz
Frame rate                     : 46.875 FPS (1024 SPF)
Compression mode               : Lossy
Delay relative to video        : -21 ms
Stream size                    : 60.9 MiB (10%)
Title                          : GOPISAHI
Language                       : English

Text
Language                       : English



TORRENT

MAGNET

DWONLOAD

 Zombie Night
(2013) on IMDb


No comments:

Post a Comment