+18 Strippers Vs Werewolves 2012 x264 720p BluRay Dual Audio English Hindi GOPISAHI


Format                         : Matroska
Format version                 : Version 4 / Version 2
File size                      : 679 MiB
Duration                       : 1 h 32 min
Overall bit rate               : 1 022 kb/s
Movie name                     : Strippers Vs Werewolves 2012 GOPISAHI

Video
Format                         : AVC
Format/Info                    : Advanced Video Codec
Codec ID                       : V_MPEG4/ISO/AVC
Duration                       : 1 h 32 min
Bit rate                       : 799 kb/s
Width                          : 1 280 pixels
Height                         : 544 pixels
Display aspect ratio           : 2.35:1
Frame rate mode                : Constant
Frame rate                     : 23.976 (24000/1001) FPS
Color space                    : YUV
Chroma subsampling             : 4:2:0
Bit depth                      : 8 bits
Scan type                      : Progressive
Bits/(Pixel*Frame)             : 0.048
Stream size                    : 531 MiB (78%)
Title                          : GOPISAHI
Writing library                : x264 core 155 r2901 7d0ff22

Audio #1
Format                         : AAC
Format/Info                    : Advanced Audio Codec
Duration                       : 1 h 30 min
Bit rate                       : 128 kb/s
Channel(s)                     : 2 channels
Channel positions              : Front: L R
Sampling rate                  : 48.0 kHz
Frame rate                     : 46.875 FPS (1024 SPF)
Compression mode               : Lossy
Delay relative to video        : -21 ms
Stream size                    : 82.5 MiB (12%)
Title                          : GOPISAHI
Language                       : Hindi

Audio #2
Format                         : AAC
Format/Info                    : Advanced Audio Codec
Duration                       : 1 h 32 min
Bit rate                       : 96.0 kb/s
Channel(s)                     : 2 channels
Channel positions              : Front: L R
Sampling rate                  : 48.0 kHz
Frame rate                     : 46.875 FPS (1024 SPF)
Compression mode               : Lossy
Delay relative to video        : -21 ms
Stream size                    : 63.7 MiB (9%)
Title                          : GOPISAHI
Language                       : English

Text



TORRENT

MAGNET

 https://uploadfiles.pw/48287058d0468210

http://1upload.pw/Download.php?url=eXhZRzRjVGVsWVRTakFGVXhmWEdPbTNQUi9qOW52T01OaDZzWHRjNTcyQnBuVm9LSm16L3BWc2lKd2N1SVpidA==

https://linkstaker.bid/drive/download.php?id=9a2e0b9a629f43cee778

http://www.indishare.me/ytgsygemip47

https://www.oboom.com/12ZUGQQV

https://megaup.net/hPjN/_18_Strippers_Vs_Werewolves_2012_x264_720p_BluRay__Dual_Audio__English_Hindi_GOPISAHI.mkv

https://vidoza.net/ojcl1p36l53f.html

http://www.filefactory.com/file/1qccrg6q1boj/

https://uptobox.com/ythtv7oxqgbj

https://uptostream.com/ythtv7oxqgbj

https://openload.co/f/2HbqrRcPBv4/_18_Strippers_Vs_Werewolves_2012_x264_720p_BluRay__Dual_Audio__English_Hindi_GOPISAHI.mkv.mp4

https://bdupload.info/nrtxejgbzvrg


 Strippers vs Werewolves
(2012) on IMDb

Post a Comment

0 Comments