Avengers Infinity War 2018 Digital Extras x264 720p HD Esub English GOPISAHI - GOPISAHI

Wednesday, 1 August 2018

Avengers Infinity War 2018 Digital Extras x264 720p HD Esub English GOPISAHI

 MV5BMjMxNjY2MDU1OV5BMl5BanBnXkFtZTgwNzY1MTUwNTM%2540._V1_QL50_SY1000_CR0%252C0%252C674%252C1000_AL_
Format                         : Matroska
Format version                 : Version 4 / Version 2
File size                      : 554 MiB
Duration                       : 1 h 17 min
Overall bit rate               : 996 kb/s
Movie name                     : Avengers Infinity War 2018 Digital Extras GOPISAHI

Video
Format                         : AVC
Codec ID                       : V_MPEG4/ISO/AVC
Duration                       : 1 h 17 min
Bit rate                       : 899 kb/s
Width                          : 1 280 pixels
Height                         : 536 pixels
Display aspect ratio           : 2.40:1
Frame rate mode                : Constant
Frame rate                     : 23.976 (24000/1001) FPS
Color space                    : YUV
Chroma subsampling             : 4:2:0
Bit depth                      : 8 bits
Scan type                      : Progressive
Bits/(Pixel*Frame)             : 0.055
Stream size                    : 500 MiB (90%)
Title                          : GOPISAHI
Writing library                : x264 core 155 r2901 7d0ff22

Audio
Format                         : AAC
Duration                       : 1 h 17 min
Bit rate                       : 96.0 kb/s
Channel(s)                     : 2 channels
Channel positions              : Front: L R
Sampling rate                  : 48.0 kHz
Frame rate                     : 46.875 FPS (1024 SPF)
Compression mode               : Lossy
Delay relative to video        : 11 ms
Stream size                    : 53.2 MiB (10%)
Title                          : GOPISAHI
Language                       : English

Menu
00:00:00.000                   : en:The Directors' Roundtable: I Am Iron Man
00:03:08.271                   : en:The Directors' Roundtable: Character First
00:07:48.259                   : en:The Directors' Roundtable: Live From Prague
00:11:36.279                   : en:The Directors' Roundtable: Secret Identities
00:13:42.530                   : en:The Directors' Roundtable: Unexpected Comedy
00:17:31.384                   : en:The Directors' Roundtable: Iconic Roles
00:18:47.376                   : en:The Directors' Roundtable: Meeting Coppola
00:21:57.358                   : en:The Directors' Roundtable: Passing The Baton
00:30:15.355                   : en:The Directors' Roundtable: From Page To Screen
00:32:55.348                   : en:Gag Reel
00:35:01.474                   : en:Strange Alchemy
00:40:14.579                   : en:The Mad Titan
00:46:47.305                   : en:Beyond the Battle: Titan
00:56:25.424                   : en:Beyond the Battle: Wakanda
01:07:24.290                   : en:Deleted Scenes



TORRENT

MAGNET

https://linkshub.me/view/tQS1eXPTcd

 Avengers: Infinity War
(2018) on IMDb


No comments:

Post a Comment