Bring It On Fight To The Finish 2009 x264 720p Esub BluRay Dual Audio English Hindi GOPISAHI - GOPISAHI

Sunday, 5 August 2018

Bring It On Fight To The Finish 2009 x264 720p Esub BluRay Dual Audio English Hindi GOPISAHI


Format                         : Matroska
Format version                 : Version 4 / Version 2
File size                      : 727 MiB
Duration                       : 1 h 42 min
Overall bit rate               : 993 kb/s
Movie name                     : Bring It On Fight To The Finish 2009 GOPISAHI

Video
Format                         : AVC
Format/Info                    : Advanced Video Codec
Codec ID                       : V_MPEG4/ISO/AVC
Duration                       : 1 h 42 min
Bit rate                       : 799 kb/s
Width                          : 1 278 pixels
Height                         : 720 pixels
Display aspect ratio           : 16:9
Frame rate mode                : Constant
Frame rate                     : 23.976 (24000/1001) FPS
Color space                    : YUV
Chroma subsampling             : 4:2:0
Bit depth                      : 8 bits
Scan type                      : Progressive
Bits/(Pixel*Frame)             : 0.036
Stream size                    : 584 MiB (80%)
Title                          : GOPISAHI
Writing library                : x264 core 155 r2901 7d0ff22

Audio #1
Format                         : AAC
Duration                       : 1 h 42 min
Bit rate                       : 96.0 kb/s
Channel(s)                     : 2 channels
Channel positions              : Front: L R
Sampling rate                  : 48.0 kHz
Frame rate                     : 46.875 FPS (1024 SPF)
Compression mode               : Lossy
Delay relative to video        : 2 s 21 ms
Stream size                    : 70.3 MiB (10%)
Title                          : GOPISAHI
Language                       : Hindi

Audio #2
Format                         : AAC
Format/Info                    : Advanced Audio Codec
Duration                       : 1 h 42 min
Bit rate                       : 96.0 kb/s
Channel(s)                     : 2 channels
Channel positions              : Front: L R
Sampling rate                  : 48.0 kHz
Frame rate                     : 46.875 FPS (1024 SPF)
Compression mode               : Lossy
Stream size                    : 70.3 MiB (10%)
Title                          : GOPISAHI
Language                       : English

Text
Language                       : English




TORRENT

MAGNET

https://linkshub.me/view/rcQjWW9zOH

 Bring It On: Fight to the Finish
(2009) on IMDb


1 comment:

  1. Admin bro please upload pablo escobar the drug lord all 74 episodes in 720p,
    Please upload in single episodes,
    https://katmoviehd.tv/pablo-escobar/?_e_pi_=7%2CPAGE_ID10%2C6576547824

    ReplyDelete