Deadpool 2 2018 x264 720p Esub HD Dual Audio English Hindi CLean GOPISAHI - GOPISAHI

Wednesday, 8 August 2018

Deadpool 2 2018 x264 720p Esub HD Dual Audio English Hindi CLean GOPISAHI


Format                         : Matroska
Format version                 : Version 4 / Version 2
File size                      : 679 MiB
Duration                       : 2 h 0 min
Overall bit rate               : 789 kb/s
Movie name                     : Deadpool 2 2018 GOPISAHI

Video
Format                         : AVC
Format/Info                    : Advanced Video Codec
Codec ID                       : V_MPEG4/ISO/AVC
Duration                       : 1 h 59 min
Bit rate                       : 599 kb/s
Width                          : 1 280 pixels
Height                         : 536 pixels
Display aspect ratio           : 2.40:1
Frame rate mode                : Constant
Frame rate                     : 23.976 (24000/1001) FPS
Color space                    : YUV
Chroma subsampling             : 4:2:0
Bit depth                      : 8 bits
Scan type                      : Progressive
Bits/(Pixel*Frame)             : 0.036
Stream size                    : 512 MiB (75%)
Title                          : GOPISAHI
Writing library                : x264 core 155 r2901 7d0ff22

Audio #1
Format                         : AAC
Format/Info                    : Advanced Audio Codec
Duration                       : 2 h 0 min
Bit rate                       : 96.0 kb/s
Channel(s)                     : 2 channels
Channel positions              : Front: L R
Sampling rate                  : 48.0 kHz
Frame rate                     : 46.875 FPS (1024 SPF)
Compression mode               : Lossy
Delay relative to video        : -21 ms
Stream size                    : 82.2 MiB (12%)
Title                          : GOPISAHI
Language                       : Hindi

Audio #2
Format                         : AAC
Format/Info                    : Advanced Audio Codec
Duration                       : 1 h 59 min
Bit rate                       : 96.0 kb/s
Channel(s)                     : 2 channels
Channel positions              : Front: L R
Sampling rate                  : 48.0 kHz
Frame rate                     : 46.875 FPS (1024 SPF)
Compression mode               : Lossy
Delay relative to video        : 31 ms
Stream size                    : 82.1 MiB (12%)
Title                          : GOPISAHI
Language                       : English

Text
Language                       : English

Menu
00:00:00.000                   : en:Chapter 1
00:02:30.651                   : en:Chapter 2
00:05:52.394                   : en:Chapter 3
00:08:10.615                   : en:Chapter 4
00:11:29.522                   : en:Chapter 5
00:14:51.057                   : en:Chapter 6
00:16:19.979                   : en:Chapter 7
00:20:23.472                   : en:Chapter 8
00:21:59.485                   : en:Chapter 9
00:26:33.425                   : en:Chapter 10
00:31:39.731                   : en:Chapter 11
00:35:15.947                   : en:Chapter 12
00:38:59.337                   : en:Chapter 13
00:41:48.881                   : en:Chapter 14
00:46:15.189                   : en:Chapter 15
00:50:29.026                   : en:Chapter 16
00:53:55.065                   : en:Chapter 17
00:56:26.383                   : en:Chapter 18
00:58:24.668                   : en:Chapter 19
01:00:25.038                   : en:Chapter 20
01:03:58.251                   : en:Chapter 21
01:07:56.447                   : en:Chapter 22
01:09:37.423                   : en:Chapter 23
01:13:26.819                   : en:Chapter 24
01:17:48.080                   : en:Chapter 25
01:20:54.975                   : en:Chapter 26
01:24:04.873                   : en:Chapter 27
01:26:20.300                   : en:Chapter 28
01:29:27.863                   : en:Chapter 29
01:31:40.245                   : en:Chapter 30
01:33:25.308                   : en:Chapter 31
01:35:28.264                   : en:Chapter 32
01:38:53.511                   : en:Chapter 33
01:42:15.129                   : en:Chapter 34
01:45:17.978                   : en:Chapter 35
01:48:59.533                   : en:Chapter 36


TORRENT

MAGNET

DWONLOAD

ONLINE HD

 Deadpool 2
(2018) on IMDb


No comments:

Post a Comment