Deja Vu 2006 x264 720p Esub BluRay Dual Audio English Hindi GOPISAHI - GOPISAHI

Sunday, 5 August 2018

Deja Vu 2006 x264 720p Esub BluRay Dual Audio English Hindi GOPISAHI


Format                         : Matroska
Format version                 : Version 4 / Version 2
File size                      : 662 MiB
Duration                       : 2 h 6 min
Overall bit rate               : 731 kb/s
Movie name                     : Deja Vu 2006 GOPISAHI

Video
Format                         : AVC
Format/Info                    : Advanced Video Codec
Codec ID                       : V_MPEG4/ISO/AVC
Duration                       : 2 h 5 min
Bit rate                       : 637 kb/s
Width                          : 1 280 pixels
Height                         : 536 pixels
Display aspect ratio           : 2.40:1
Frame rate mode                : Constant
Frame rate                     : 23.976 (24000/1001) FPS
Color space                    : YUV
Chroma subsampling             : 4:2:0
Bit depth                      : 8 bits
Scan type                      : Progressive
Bits/(Pixel*Frame)             : 0.039
Stream size                    : 571 MiB (86%)
Title                          : GOPISAHI
Writing library                : x264 core 112 r1867 22bfd31

Audio #1
Format                         : AAC
Duration                       : 1 h 58 min
Bit rate                       : 69.8 kb/s
Channel(s)                     : 6 channels
Channel positions              : Front: L C R, Side: L R, LFE
Sampling rate                  : 48.0 kHz
Frame rate                     : 46.875 FPS (1024 SPF)
Compression mode               : Lossy
Stream size                    : 58.9 MiB (9%)
Title                          : GOPISAHI
Language                       : Hindi

Audio #2
Format                         : AAC
Format/Info                    : Advanced Audio Codec
Duration                       : 2 h 6 min
Bit rate                       : 32.0 kb/s
Channel(s)                     : 2 channels
Channel positions              : Front: L R
Sampling rate                  : 48.0 kHz / 24.0 kHz
Frame rate                     : 23.438 FPS (1024 SPF)
Compression mode               : Lossy
Stream size                    : 28.9 MiB (4%)
Title                          : GOPISAHI
Language                       : English

Tex(0%)
Language                       : English

Menu
00:00:00.097                   : en:00:00:00.097



TORRENT

MAGNET

https://linkshub.me/view/FmOeYsMWCa

 Deja Vu
(2006) on IMDb


No comments:

Post a Comment